<?xml version="1.0" standalone="no"?><!DOCTYPE svg PUBLIC "-//W3C//DTD SVG 1.1//EN" "http://www.w3.org/Graphics/SVG/1.1/DTD/svg11.dtd" ><svg xmlns="http://www.w3.org/2000/svg"><metadata></metadata><defs><font id="2.004-H2;ADBO;NotoSansSC-Regular" horiz-adv-x="1000"><font-face font-family="Noto Sans SC" font-weight="400" font-stretch="normal" units-per-em="1000" panose-1="2 11 2 0 0 0 0 0 0 0" ascent="1160" descent="-288" x-height="0" bbox="13 -250 979 880" underline-thickness="50" underline-position="-125" unicode-range="U+002d-ff1a" /><missing-glyph horiz-adv-x="1000" d="M100 -120 l0 1000 l800 0 l0 -1000 l-800 0 ZM500 421 l318 409 l-636 0 l318 -409 ZM532 380 l318 -409 l0 818 l-318 -409 ZM182 -70 l636 0 l-318 409 l-318 -409 ZM150 789 l0 -818 l318 409 l-318 409 Z" /><glyph glyph-name="" unicode="-­&#x2011;" d="M46 245 l0 70 l257 0 l0 -70 l-257 0 Z" /><glyph glyph-name="" unicode="0" d="M278 -13 q-69 0 -120.5 42 q-51.5 42 -79.5 127 q-28 85 -28 213 q0 128 28 211.5 q28 83.5 79.5 124.5 q51.5 41 120.5 41 q70 0 121 -41.5 q51 -41.5 79 -124.5 q28 -83 28 -211 q0 -128 -28 -213 q-28 -85 -79 -127 q-51 -42 -121 -42 ZM278 61 q42 0 73.5 32 q31.5 32 49 100.5 q17.5 68.5 17.5 175.5 q0 107 -17.5 174.5 q-17.5 67.5 -49 99 q-31.5 31.5 -73.5 31.5 q-41 0 -73 -31.5 q-32 -31.5 -49.5 -99 q-17.5 -67.5 -17.5 -174.5 q0 -107 17.5 -175.5 q17.5 -68.5 49.5 -100.5 q32 -32 73 -32 Z" /><glyph glyph-name="" unicode="1" d="M88 0 l0 76 l164 0 l0 547 l-131 0 l0 58 q49 9 85.5 22 q36.5 13 66.5 30 l70 0 l0 -657 l147 0 l0 -76 l-402 0 Z" /><glyph glyph-name="" unicode="2" d="M44 0 l0 54 q115 101 189.5 184 q74.5 83 110.5 154.5 q36 71.5 36 134.5 q0 42 -14.5 75 q-14.5 33 -44.5 51.5 q-30 18.5 -76 18.5 q-45 0 -83.5 -24 q-38.5 -24 -68.5 -61 l-53 52 q44 49 95 78 q51 29 121 29 q66 0 113.5 -26.5 q47.5 -26.5 74 -75 q26.5 -48.5 26.5 -113.5 q0 -73 -36.5 -148 q-36.5 -75 -101 -152.5 q-64.5 -77.5 -150.5 -158.5 q29 2 60.5 4.5 q31.5 2.5 59.5 2.5 l203 0 l0 -79 l-461 0 Z" /><glyph glyph-name="" unicode="3" d="M263 -13 q-57 0 -100.5 14 q-43.5 14 -76.5 37 q-33 23 -57 50 l47 59 q32 -33 75.5 -58.5 q43.5 -25.5 105.5 -25.5 q44 0 77.5 16.5 q33.5 16.5 52.5 47 q19 30.5 19 72.5 q0 44 -21.5 77 q-21.5 33 -71.5 51.5 q-50 18.5 -135 18.5 l0 70 q76 0 120 18.5 q44 18.5 63.5 50.5 q19.5 32 19.5 71 q0 53 -33 84.5 q-33 31.5 -91 31.5 q-44 0 -82.5 -20 q-38.5 -20 -69.5 -51 l-49 58 q42 38 91.5 62.5 q49.5 24.5 112.5 24.5 q62 0 110.5 -21.5 q48.5 -21.5 76 -62.5 q27.5 -41 27.5 -99 q0 -67 -36 -111 q-36 -44 -94 -65 l0 -5 q43 -10 78 -35 q35 -25 56 -63 q21 -38 21 -88 q0 -65 -32 -112 q-32 -47 -85 -72 q-53 -25 -119 -25 Z" /><glyph glyph-name="" unicode="4" d="M340 0 l0 500 q0 27 2 66 q2 39 3 67 l-4 0 q-14 -26 -28.5 -53.5 q-14.5 -27.5 -30.5 -54.5 l-167 -250 l409 0 l0 -73 l-504 0 l0 60 l305 471 l101 0 l0 -733 l-86 0 Z" /><glyph glyph-name="" unicode="5" d="M262 -13 q-57 0 -100.5 14 q-43.5 14 -76 36 q-32.5 22 -58.5 47 l46 60 q21 -21 46.5 -39.5 q25.5 -18.5 58.5 -30 q33 -11.5 75 -11.5 q43 0 78.5 21 q35.5 21 56.5 60 q21 39 21 92 q0 78 -41.5 122.5 q-41.5 44.5 -110.5 44.5 q-36 0 -63 -11 q-27 -11 -59 -32 l-49 31 l24 342 l356 0 l0 -78 l-276 0 l-19 -212 q24 14 50.5 21.5 q26.5 7.5 59.5 7.5 q61 0 111 -24.5 q50 -24.5 80 -76.5 q30 -52 30 -133 q0 -80 -34.5 -136 q-34.5 -56 -89.5 -85.5 q-55 -29.5 -116 -29.5 Z" /><glyph glyph-name="" unicode="a" d="M217 -13 q-45 0 -81 18 q-36 18 -56.5 52.5 q-20.5 34.5 -20.5 83.5 q0 89 79.5 136.5 q79.5 47.5 253.5 66.5 q0 35 -9.5 66.5 q-9.5 31.5 -33.5 51 q-24 19.5 -69 19.5 q-47 0 -88.5 -18.5 q-41.5 -18.5 -74.5 -39.5 l-35 63 q25 16 58 32.5 q33 16.5 72 27.5 q39 11 83 11 q66 0 107.5 -28 q41.5 -28 61 -77.5 q19.5 -49.5 19.5 -117.5 l0 -334 l-75 0 l-8 65 l-3 0 q-38 -32 -83.5 -55 q-45.5 -23 -96.5 -23 ZM243 61 q39 0 74.5 18 q35.5 18 74.5 53 l0 151 q-91 -10 -145 -28.5 q-54 -18.5 -77 -45 q-23 -26.5 -23 -62.5 q0 -47 28 -66.5 q28 -19.5 68 -19.5 Z" /><glyph glyph-name="" unicode="d" d="M277 -13 q-68 0 -118.5 33 q-50.5 33 -78 96.5 q-27.5 63.5 -27.5 154.5 q0 88 33 152 q33 64 86.5 99 q53.5 35 115.5 35 q48 0 82.5 -16.5 q34.5 -16.5 70.5 -46.5 l-5 93 l0 209 l92 0 l0 -796 l-75 0 l-8 64 l-3 0 q-32 -32 -74 -54.5 q-42 -22.5 -91 -22.5 ZM297 64 q38 0 72 18.5 q34 18.5 67 55.5 l0 285 q-34 31 -66 44 q-32 13 -66 13 q-43 0 -78.5 -26.5 q-35.5 -26.5 -57 -73 q-21.5 -46.5 -21.5 -108.5 q0 -65 18 -112 q18 -47 51.5 -71.5 q33.5 -24.5 80.5 -24.5 Z" /><glyph glyph-name="" unicode="e" d="M312 -13 q-73 0 -132 34 q-59 34 -93.5 97.5 q-34.5 63.5 -34.5 152.5 q0 67 20 119.5 q20 52.5 54.5 90 q34.5 37.5 78.5 57 q44 19.5 90 19.5 q70 0 118 -31 q48 -31 73.5 -88.5 q25.5 -57.5 25.5 -135.5 q0 -15 -1 -28 q-1 -13 -3 -24 l-366 0 q3 -58 26.5 -100.5 q23.5 -42.5 62.5 -66 q39 -23.5 91 -23.5 q40 0 72.5 11.5 q32.5 11.5 63.5 31.5 l32 -61 q-35 -23 -79 -39 q-44 -16 -99 -16 ZM141 315 l291 0 q0 82 -35.5 125.5 q-35.5 43.5 -99.5 43.5 q-38 0 -71.5 -20 q-33.5 -20 -56 -57 q-22.5 -37 -28.5 -92 Z" /><glyph glyph-name="" unicode="g" d="M275 -250 q-66 0 -117 17 q-51 17 -79 49.5 q-28 32.5 -28 78.5 q0 35 21 67.5 q21 32.5 59 55.5 l0 5 q-21 13 -35 35 q-14 22 -14 54 q0 34 19.5 60 q19.5 26 40.5 41 l0 4 q-27 21 -49 59 q-22 38 -22 87 q0 60 28 103.5 q28 43.5 74.5 67 q46.5 23.5 100.5 23.5 q24 0 43.5 -4 q19.5 -4 33.5 -10 l189 0 l0 -70 l-111 0 q20 -19 32 -48 q12 -29 12 -64 q0 -58 -26.5 -100.5 q-26.5 -42.5 -71.5 -65.5 q-45 -23 -101 -23 q-19 0 -40.5 5 q-21.5 5 -39.5 14 q-15 -12 -25 -27 q-10 -15 -10 -38 q0 -25 20 -42 q20 -17 75 -17 l107 0 q94 0 141.5 -31 q47.5 -31 47.5 -98 q0 -50 -34 -93 q-34 -43 -95.5 -69 q-61.5 -26 -145.5 -26 ZM274 234 q32 0 58.5 16 q26.5 16 42 45 q15.5 29 15.5 68 q0 40 -15.5 68.5 q-15.5 28.5 -41.5 43.5 q-26 15 -59 15 q-31 0 -57.5 -15 q-26.5 -15 -42 -43 q-15.5 -28 -15.5 -69 q0 -39 16 -68 q16 -29 42 -45 q26 -16 57 -16 ZM288 -187 q52 0 90.5 16 q38.5 16 60 41.5 q21.5 25.5 21.5 52.5 q0 39 -28 54 q-28 15 -82 15 l-94 0 q-15 0 -33.5 1.5 q-18.5 1.5 -36.5 6.5 q-29 -20 -42 -44.5 q-13 -24.5 -13 -47.5 q0 -43 41.5 -69 q41.5 -26 115.5 -26 Z" /><glyph glyph-name="" unicode="h" d="M92 0 l0 796 l92 0 l0 -218 l-4 -112 q38 38 81 64.5 q43 26.5 99 26.5 q86 0 126 -54.5 q40 -54.5 40 -158.5 l0 -344 l-91 0 l0 332 q0 77 -24.5 111 q-24.5 34 -78.5 34 q-42 0 -75 -21 q-33 -21 -73 -62 l0 -394 l-92 0 Z" /><glyph glyph-name="" unicode="i" d="M92 0 l0 543 l92 0 l0 -543 l-92 0 ZM138 655 q-27 0 -43.5 16.5 q-16.5 16.5 -16.5 44.5 q0 27 16.5 43 q16.5 16 43.5 16 q27 0 44 -16 q17 -16 17 -43 q0 -28 -17 -44.5 q-17 -16.5 -44 -16.5 Z" /><glyph glyph-name="" unicode="k" d="M92 0 l0 796 l90 0 l0 -539 l4 0 l230 286 l102 0 l-181 -219 l205 -324 l-99 0 l-159 262 l-102 -119 l0 -143 l-90 0 Z" /><glyph glyph-name="" unicode="l" d="M188 -13 q-34 0 -55 14 q-21 14 -31 41.5 q-10 27.5 -10 65.5 l0 688 l92 0 l0 -694 q0 -21 7.5 -30 q7.5 -9 17.5 -9 q4 0 8 0.5 q4 0.5 11 1.5 l13 -70 q-10 -3 -22 -5.5 q-12 -2.5 -31 -2.5 Z" /><glyph glyph-name="" unicode="m" d="M92 0 l0 543 l75 0 l9 -79 l2 0 q36 39 78.5 66 q42.5 27 90.5 27 q63 0 98 -28 q35 -28 52 -76 q43 46 86.5 75 q43.5 29 93.5 29 q83 0 123.5 -54.5 q40.5 -54.5 40.5 -158.5 l0 -344 l-91 0 l0 332 q0 77 -24.5 111 q-24.5 34 -76.5 34 q-31 0 -64.5 -20.5 q-33.5 -20.5 -72.5 -62.5 l0 -394 l-91 0 l0 332 q0 77 -24.5 111 q-24.5 34 -76.5 34 q-31 0 -65 -20.5 q-34 -20.5 -71 -62.5 l0 -394 l-92 0 Z" /><glyph glyph-name="" unicode="n" d="M92 0 l0 543 l75 0 l9 -79 l2 0 q39 39 82.5 66 q43.5 27 99.5 27 q86 0 126 -54.5 q40 -54.5 40 -158.5 l0 -344 l-91 0 l0 332 q0 77 -24.5 111 q-24.5 34 -78.5 34 q-42 0 -75 -21 q-33 -21 -73 -62 l0 -394 l-92 0 Z" /><glyph glyph-name="" unicode="o" d="M303 -13 q-66 0 -124 33.5 q-58 33.5 -92.5 97 q-34.5 63.5 -34.5 153.5 q0 91 34.5 154.5 q34.5 63.5 92.5 97.5 q58 34 124 34 q50 0 95.5 -19 q45.5 -19 80.5 -56 q35 -37 55 -90 q20 -53 20 -121 q0 -90 -35 -153.5 q-35 -63.5 -92 -97 q-57 -33.5 -124 -33.5 ZM303 63 q47 0 82.5 26 q35.5 26 55.5 73 q20 47 20 109 q0 63 -20 110 q-20 47 -55.5 73 q-35.5 26 -82.5 26 q-47 0 -82.5 -26 q-35.5 -26 -55 -73 q-19.5 -47 -19.5 -110 q0 -62 19.5 -109 q19.5 -47 55 -73 q35.5 -26 82.5 -26 Z" /><glyph glyph-name="" unicode="p" d="M92 -229 l0 772 l75 0 l9 -63 l2 0 q37 31 81.5 54 q44.5 23 91.5 23 q70 0 118.5 -34.5 q48.5 -34.5 73 -96.5 q24.5 -62 24.5 -146 q0 -93 -33.5 -158.5 q-33.5 -65.5 -87 -100 q-53.5 -34.5 -115.5 -34.5 q-37 0 -75 16.5 q-38 16.5 -75 46.5 l3 -95 l0 -184 l-92 0 ZM316 64 q45 0 80.5 25.5 q35.5 25.5 55.5 74 q20 48.5 20 115.5 q0 60 -14.5 105.5 q-14.5 45.5 -45.5 70.5 q-31 25 -84 25 q-34 0 -69.5 -19 q-35.5 -19 -74.5 -55 l0 -286 q36 -31 71 -43.5 q35 -12.5 61 -12.5 Z" /><glyph glyph-name="" unicode="r" d="M92 0 l0 543 l75 0 l9 -99 l2 0 q28 52 68.5 82.5 q40.5 30.5 85.5 30.5 q19 0 32.5 -2.5 q13.5 -2.5 25.5 -9.5 l-17 -79 q-14 4 -25 6.5 q-11 2.5 -28 2.5 q-33 0 -71 -28.5 q-38 -28.5 -65 -97.5 l0 -349 l-92 0 Z" /><glyph glyph-name="" unicode="s" d="M234 -13 q-57 0 -110.5 21.5 q-53.5 21.5 -91.5 53.5 l44 61 q36 -29 74 -47 q38 -18 87 -18 q54 0 80.5 24.5 q26.5 24.5 26.5 60.5 q0 28 -18.5 46.5 q-18.5 18.5 -47 32 q-28.5 13.5 -58.5 24.5 q-38 15 -74.5 33.5 q-36.5 18.5 -60 48 q-23.5 29.5 -23.5 75.5 q0 44 22 78.5 q22 34.5 64 55 q42 20.5 101 20.5 q50 0 93.5 -18 q43.5 -18 74.5 -44 l-44 -57 q-28 20 -57.5 34 q-29.5 14 -65.5 14 q-52 0 -76.5 -23.5 q-24.5 -23.5 -24.5 -55.5 q0 -25 16.5 -42 q16.5 -17 43.5 -28.5 q27 -11.5 57 -23.5 q30 -11 59.5 -24 q29.5 -13 53 -31 q23.5 -18 38 -44.5 q14.5 -26.5 14.5 -65.5 q0 -44 -22.5 -81 q-22.5 -37 -66 -58.5 q-43.5 -21.5 -108.5 -21.5 Z" /><glyph glyph-name="" unicode="t" d="M262 -13 q-57 0 -91 22.5 q-34 22.5 -48.5 63.5 q-14.5 41 -14.5 95 l0 301 l-81 0 l0 69 l86 5 l10 153 l76 0 l0 -153 l148 0 l0 -74 l-148 0 l0 -304 q0 -49 18.5 -76.5 q18.5 -27.5 65.5 -27.5 q15 0 32 4.5 q17 4.5 30 10.5 l18 -69 q-23 -8 -49 -14 q-26 -6 -52 -6 Z" /><glyph glyph-name="" unicode="v" d="M209 0 l-196 543 l95 0 l102 -309 q13 -40 25.5 -80.5 q12.5 -40.5 24.5 -79.5 l5 0 q13 39 25.5 79.5 q12.5 40.5 24.5 80.5 l103 309 l90 0 l-192 -543 l-107 0 Z" /><glyph glyph-name="" unicode="w" d="M178 0 l-151 543 l93 0 l81 -314 q9 -39 16.5 -76 q7.5 -37 15.5 -75 l5 0 q9 38 17.5 75 q8.5 37 18.5 76 l85 314 l89 0 l85 -314 q10 -39 19.5 -76 q9.5 -37 18.5 -75 l5 0 q8 38 16 75 q8 37 17 76 l79 314 l88 0 l-147 -543 l-111 0 l-78 293 q-10 38 -19 76.5 q-9 38.5 -18 79.5 l-5 0 q-9 -41 -17.5 -80 q-8.5 -39 -19.5 -78 l-77 -291 l-106 0 Z" /><glyph glyph-name="" unicode="&#x3001;" d="M273 -56 q-32 40 -70 80 q-38 40 -76.5 77 q-38.5 37 -74.5 66 l65 57 q36 -29 76 -67 q40 -38 78.5 -78 q38.5 -40 69.5 -77 l-68 -58 Z" /><glyph glyph-name="" unicode="&#x4e0e;" d="M227 450 l606 0 l0 -71 l-606 0 l0 71 ZM277 702 l599 0 l0 -72 l-599 0 l0 72 ZM57 238 l624 0 l0 -73 l-624 0 l0 73 ZM814 450 l77 0 q0 0 -0.5 -7 q-0.5 -7 -1 -15.5 q-0.5 -8.5 -1.5 -14.5 q-14 -143 -29 -233.5 q-15 -90.5 -32.5 -140.5 q-17.5 -50 -40.5 -72 q-19 -19 -40.5 -26 q-21.5 -7 -54.5 -9 q-27 -1 -76 0 q-49 1 -103 4 q-1 17 -8.5 38 q-7.5 21 -19.5 37 q58 -5 110.5 -6.5 q52.5 -1.5 74.5 -1.5 q19 0 31 2 q12 2 21 10 q21 17 37 64.5 q16 47.5 29.5 135.5 q13.5 88 25.5 222 l1 13 ZM261 818 l75 -8 q-10 -52 -21.5 -110.5 q-11.5 -58.5 -24 -117 q-12.5 -58.5 -24.5 -111 q-12 -52.5 -23 -92.5 l-79 1 q12 42 25 95.5 q13 53.5 26 113.5 q13 60 24.5 119 q11.5 59 21.5 110 Z" /><glyph glyph-name="" unicode="&#x4e1a;" d="M60 46 l883 0 l0 -74 l-883 0 l0 74 ZM340 828 l77 0 l0 -813 l-77 0 l0 813 ZM585 827 l76 0 l0 -817 l-76 0 l0 817 ZM854 607 l68 -32 q-24 -57 -53 -120 q-29 -63 -60 -121.5 q-31 -58.5 -59 -105.5 l-62 32 q28 46 59 106 q31 60 59 123 q28 63 48 118 ZM82 589 l70 21 q27 -55 54 -119 q27 -64 50.5 -123.5 q23.5 -59.5 37.5 -103.5 l-75 -28 q-12 45 -34.5 106 q-22.5 61 -49 126 q-26.5 65 -53.5 121 Z" /><glyph glyph-name="" unicode="&#x4e2d;" d="M96 661 l806 0 l0 -470 l-77 0 l0 397 l-654 0 l0 -402 l-75 0 l0 475 ZM136 322 l734 0 l0 -74 l-734 0 l0 74 ZM458 840 l79 0 l0 -919 l-79 0 l0 919 Z" /><glyph glyph-name="" unicode="&#x4e3b;" d="M103 640 l794 0 l0 -73 l-794 0 l0 73 ZM149 347 l707 0 l0 -73 l-707 0 l0 73 ZM56 27 l892 0 l0 -73 l-892 0 l0 73 ZM459 581 l81 0 l0 -592 l-81 0 l0 592 ZM374 795 l61 41 q32 -22 67.5 -51 q35.5 -29 66.5 -57.5 q31 -28.5 51 -52.5 l-65 -47 q-18 23 -48.5 52.5 q-30.5 29.5 -65 60 q-34.5 30.5 -67.5 54.5 Z" /><glyph glyph-name="" unicode="&#x4ea7;" d="M168 464 l760 0 l0 -74 l-760 0 l0 74 ZM110 720 l792 0 l0 -72 l-792 0 l0 72 ZM124 464 l78 0 l0 -139 q0 -44 -4 -97.5 q-4 -53.5 -15.5 -109 q-11.5 -55.5 -32 -108.5 q-20.5 -53 -53.5 -97 q-6 7 -17.5 17.5 q-11.5 10.5 -23.5 20 q-12 9.5 -21 14.5 q40 54 59 118 q19 64 24.5 128 q5.5 64 5.5 116 l0 137 ZM263 612 l65 27 q25 -32 50.5 -72.5 q25.5 -40.5 38.5 -69.5 l-69 -31 q-11 30 -35.5 71.5 q-24.5 41.5 -49.5 74.5 ZM689 634 l81 -28 q-26 -44 -54.5 -91 q-28.5 -47 -52.5 -80 l-59 24 q15 24 31 54.5 q16 30.5 30 62.5 q14 32 24 58 ZM425 821 l75 20 q23 -26 44 -60 q21 -34 31 -60 l-79 -25 q-8 26 -28.5 61.5 q-20.5 35.5 -42.5 63.5 Z" /><glyph glyph-name="" unicode="&#x4eae;" d="M615 240 l79 0 l0 -209 q0 -19 7 -24 q7 -5 31 -5 q4 0 17.5 0 q13.5 0 30.5 0 q17 0 31.5 0 q14.5 0 21.5 0 q14 0 21.5 7.5 q7.5 7.5 10.5 30.5 q3 23 5 71 q8 -6 19.5 -11.5 q11.5 -5.5 24.5 -10 q13 -4.5 23 -6.5 q-3 -58 -12.5 -90 q-9.5 -32 -29.5 -44.5 q-20 -12.5 -53 -12.5 q-7 0 -24 0 q-17 0 -37.5 0 q-20.5 0 -37 0 q-16.5 0 -22.5 0 q-42 0 -65.5 8.5 q-23.5 8.5 -32 29.5 q-8.5 21 -8.5 57 l0 209 ZM304 240 l77 0 q-4 -72 -17 -124.5 q-13 -52.5 -43 -90 q-30 -37.5 -83.5 -63 q-53.5 -25.5 -138.5 -42.5 q-3 10 -10 21.5 q-7 11.5 -14.5 23 q-7.5 11.5 -15.5 18.5 q77 12 124 31.5 q47 19.5 72 49 q25 29.5 35.5 73 q10.5 43.5 13.5 103.5 ZM60 746 l878 0 l0 -64 l-878 0 l0 64 ZM78 368 l843 0 l0 -166 l-75 0 l0 106 l-696 0 l0 -106 l-72 0 l0 166 ZM276 571 l0 -86 l451 0 l0 86 l-451 0 ZM201 625 l604 0 l0 -194 l-604 0 l0 194 ZM435 830 l74 16 q17 -24 33 -53 q16 -29 23 -51 l-77 -19 q-8 22 -22.5 52 q-14.5 30 -30.5 55 ZM329 240 l336 0 l0 -64 l-336 0 l0 64 Z" /><glyph glyph-name="" unicode="&#x4ecb;" d="M652 446 l79 0 l0 -528 l-79 0 l0 528 ZM277 445 l79 0 l0 -129 q0 -50 -7 -103 q-7 -53 -29.5 -105 q-22.5 -52 -67.5 -100.5 q-45 -48.5 -121 -88.5 q-6 9 -17 19 q-11 10 -22.5 20 q-11.5 10 -21.5 16 q71 37 112 79 q41 42 62 86.5 q21 44.5 27 90 q6 45.5 6 87.5 l0 128 ZM499 847 l60 -41 q-50 -83 -127 -160.5 q-77 -77.5 -169.5 -139.5 q-92.5 -62 -187.5 -100 q-7 16 -20 36.5 q-13 20.5 -26 34.5 q71 24 140.5 62 q69.5 38 131.5 87.5 q62 49.5 113 106 q51 56.5 85 114.5 ZM534 792 q34 -48 82.5 -94.5 q48.5 -46.5 107.5 -87 q59 -40.5 123.5 -72 q64.5 -31.5 129.5 -50.5 q-8 -8 -18.5 -20.5 q-10.5 -12.5 -19.5 -25.5 q-9 -13 -15 -24 q-67 23 -131.5 58.5 q-64.5 35.5 -124.5 81.5 q-60 46 -110.5 98.5 q-50.5 52.5 -88.5 108.5 l65 27 Z" /><glyph glyph-name="" unicode="&#x4f1a;" d="M89 337 l829 0 l0 -73 l-829 0 l0 73 ZM264 530 l477 0 l0 -70 l-477 0 l0 70 ZM613 191 l63 34 q45 -40 89.5 -86.5 q44.5 -46.5 81 -92.5 q36.5 -46 58.5 -84 l-67 -41 q-21 38 -57.5 85.5 q-36.5 47.5 -80 96 q-43.5 48.5 -87.5 88.5 ZM504 840 l72 -31 q-80 -116 -204 -212 q-124 -96 -275 -166 q-5 10 -15 22.5 q-10 12.5 -20.5 24 q-10.5 11.5 -19.5 18.5 q98 42 187 96 q89 54 159.5 117.5 q70.5 63.5 115.5 130.5 ZM516 802 q31 -38 78.5 -79.5 q47.5 -41.5 107.5 -81.5 q60 -40 126.5 -74.5 q66.5 -34.5 134.5 -57.5 q-8 -8 -18.5 -19.5 q-10.5 -11.5 -19 -24 q-8.5 -12.5 -15.5 -22.5 q-67 27 -132.5 64.5 q-65.5 37.5 -124 81 q-58.5 43.5 -107 87.5 q-48.5 44 -80.5 83 l50 43 ZM157 -58 q-2 8 -6.5 22.5 q-4.5 14.5 -9.5 29.5 q-5 15 -10 25 q17 4 35 17.5 q18 13.5 41 35.5 q12 11 36 35.5 q24 24.5 53 58.5 q29 34 60 73.5 q31 39.5 57 80.5 l72 -46 q-61 -82 -131 -157.5 q-70 -75.5 -141 -132.5 l0 -2 q0 0 -8.5 -4 q-8.5 -4 -19.5 -10 q-11 -6 -19.5 -13 q-8.5 -7 -8.5 -13 ZM157 -58 l-1 60 l54 29 l590 45 q2 -16 6.5 -36 q4.5 -20 8.5 -32 q-140 -12 -241.5 -20.5 q-101.5 -8.5 -170.5 -14.5 q-69 -6 -113 -10.5 q-44 -4.5 -69.5 -8 q-25.5 -3.5 -39.5 -6 q-14 -2.5 -24 -6.5 Z" /><glyph glyph-name="" unicode="&#x4f4d;" d="M369 658 l545 0 l0 -73 l-545 0 l0 73 ZM435 509 l68 16 q13 -53 24.5 -111 q11.5 -58 21.5 -115 q10 -57 17 -108 q7 -51 11 -89 l-74 -22 q-3 40 -9.5 92 q-6.5 52 -16 110 q-9.5 58 -20.5 116.5 q-11 58.5 -22 110.5 ZM774 532 l79 -13 q-11 -62 -24 -131 q-13 -69 -28 -138 q-15 -69 -30.5 -131.5 q-15.5 -62.5 -30.5 -112.5 l-66 15 q15 51 29.5 114.5 q14.5 63.5 28 133.5 q13.5 70 24.5 138 q11 68 18 125 ZM326 34 l629 0 l0 -72 l-629 0 l0 72 ZM570 828 l71 19 q14 -37 28.5 -80.5 q14.5 -43.5 22.5 -75.5 l-75 -22 q-6 32 -19.5 77 q-13.5 45 -27.5 82 ZM286 836 l71 -21 q-33 -85 -76.5 -167.5 q-43.5 -82.5 -94.5 -155.5 q-51 -73 -105 -129 q-4 9 -11.5 23 q-7.5 14 -16 28.5 q-8.5 14.5 -15.5 22.5 q49 49 95 113 q46 64 85.5 137.5 q39.5 73.5 67.5 148.5 ZM180 579 l74 74 l1 -1 l0 -730 l-75 0 l0 657 Z" /><glyph glyph-name="" unicode="&#x4f53;" d="M251 836 l70 -20 q-28 -85 -67 -167.5 q-39 -82.5 -84.5 -155.5 q-45.5 -73 -95.5 -130 q-3 9 -11 23 q-8 14 -16.5 28.5 q-8.5 14.5 -16.5 22.5 q45 49 86 113.5 q41 64.5 75.5 137.5 q34.5 73 59.5 148 ZM160 579 l70 71 l2 -1 l0 -727 l-72 0 l0 657 ZM581 837 l73 0 l0 -911 l-73 0 l0 911 ZM298 638 l656 0 l0 -72 l-656 0 l0 72 ZM416 175 l399 0 l0 -69 l-399 0 l0 69 ZM690 601 q29 -89 73 -176.5 q44 -87.5 98 -161 q54 -73.5 112 -120.5 q-13 -10 -29.5 -27 q-16.5 -17 -27.5 -32 q-58 54 -111.5 133.5 q-53.5 79.5 -97.5 174 q-44 94.5 -74 192.5 l57 17 ZM549 605 l56 -16 q-31 -101 -76.5 -196.5 q-45.5 -95.5 -100.5 -176 q-55 -80.5 -115 -135.5 q-6 9 -15.5 20 q-9.5 11 -19.5 21 q-10 10 -19 16 q59 47 114 122 q55 75 101 164.5 q46 89.5 75 180.5 Z" /><glyph glyph-name="" unicode="&#x4f5c;" d="M487 673 l475 0 l0 -72 l-510 0 l35 72 ZM612 456 l327 0 l0 -69 l-327 0 l0 69 ZM612 235 l340 0 l0 -71 l-340 0 l0 71 ZM575 649 l76 0 l0 -728 l-76 0 l0 728 ZM526 828 l72 -19 q-28 -79 -65.5 -155.5 q-37.5 -76.5 -80.5 -143.5 q-43 -67 -89 -119 q-6 6 -16.5 16 q-10.5 10 -22 20 q-11.5 10 -19.5 15 q45 47 86 109 q41 62 75.5 133 q34.5 71 59.5 144 ZM285 836 l72 -22 q-32 -84 -76 -167.5 q-44 -83.5 -95 -156 q-51 -72.5 -106 -129.5 q-4 9 -12 23.5 q-8 14.5 -16.5 29.5 q-8.5 15 -15.5 23 q50 49 96 113 q46 64 85.5 137.5 q39.5 73.5 67.5 148.5 ZM179 579 l74 75 l1 -2 l0 -730 l-75 0 l0 657 Z" /><glyph glyph-name="" unicode="&#x516c;" d="M611 274 l70 32 q45 -53 90.5 -114.5 q45.5 -61.5 85.5 -120 q40 -58.5 65 -104.5 l-74 -40 q-24 46 -63.5 106.5 q-39.5 60.5 -85 123.5 q-45.5 63 -88.5 117 ZM324 811 l80 -22 q-33 -82 -78.5 -158.5 q-45.5 -76.5 -97.5 -141.5 q-52 -65 -108 -115 q-7 8 -19.5 18 q-12.5 10 -26 20 q-13.5 10 -23.5 16 q57 45 108 105.5 q51 60.5 93.5 131.5 q42.5 71 71.5 146 ZM665 819 q25 -52 60 -106 q35 -54 75.5 -105 q40.5 -51 82.5 -94.5 q42 -43.5 81 -75.5 q-10 -7 -21.5 -18.5 q-11.5 -11.5 -22.5 -23 q-11 -11.5 -19 -22.5 q-39 37 -81.5 84.5 q-42.5 47.5 -83.5 102.5 q-41 55 -78 113 q-37 58 -66 115 l73 30 ZM161 -14 q-2 8 -7 22.5 q-5 14.5 -10.5 30.5 q-5.5 16 -11.5 26 q20 5 41.5 27 q21.5 22 49.5 57 q14 17 42.5 55.5 q28.5 38.5 63.5 92 q35 53.5 70.5 115 q35.5 61.5 65.5 123.5 l82 -35 q-48 -87 -101.5 -172 q-53.5 -85 -110 -160.5 q-56.5 -75.5 -114.5 -135.5 l0 -3 q0 0 -9 -4 q-9 -4 -20.5 -10.5 q-11.5 -6.5 -21 -14 q-9.5 -7.5 -9.5 -14.5 ZM161 -14 l-1 63 l53 30 l561 32 q3 -16 8 -37 q5 -21 8 -34 q-134 -9 -230.5 -16 q-96.5 -7 -162.5 -11.5 q-66 -4.5 -108 -8 q-42 -3.5 -67 -6.5 q-25 -3 -38 -6 q-13 -3 -23 -6 Z" /><glyph glyph-name="" unicode="&#x5178;" d="M594 90 l52 49 q54 -25 108 -54 q54 -29 102.5 -57.5 q48.5 -28.5 83.5 -53.5 l-66 -50 q-33 24 -78.5 52.5 q-45.5 28.5 -97 58 q-51.5 29.5 -104.5 55.5 ZM39 226 l921 0 l0 -71 l-921 0 l0 71 ZM179 481 l645 0 l0 -70 l-645 0 l0 70 ZM355 842 l71 0 l0 -649 l-71 0 l0 649 ZM573 843 l71 0 l0 -651 l-71 0 l0 651 ZM140 720 l728 0 l0 -522 l-75 0 l0 451 l-580 0 l0 -451 l-73 0 l0 522 ZM339 138 l71 -44 q-38 -32 -90 -64.5 q-52 -32.5 -107.5 -61 q-55.5 -28.5 -106.5 -49.5 q-10 12 -26.5 28 q-16.5 16 -30.5 27 q52 19 107.5 47 q55.5 28 104 58.5 q48.5 30.5 78.5 58.5 Z" /><glyph glyph-name="" unicode="&#x51ef;" d="M563 785 l70 0 l0 -299 q0 -62 -4.5 -135.5 q-4.5 -73.5 -17.5 -150 q-13 -76.5 -39 -149 q-26 -72.5 -69 -132.5 q-5 7 -15.5 16 q-10.5 9 -21.5 17.5 q-11 8.5 -19 12.5 q40 56 63.5 122.5 q23.5 66.5 34.5 136 q11 69.5 14.5 137 q3.5 67.5 3.5 126.5 l0 298 ZM594 785 l217 0 l0 -65 l-217 0 l0 65 ZM766 785 l67 0 l0 -747 q0 -28 3 -35 q3 -7 14 -7 q3 0 10.5 0 q7.5 0 15.5 0 q8 0 12 0 q8 0 11.5 11 q3.5 11 5 39.5 q1.5 28.5 2.5 81.5 q11 -9 28 -17 q17 -8 31 -11 q-4 -91 -19 -126 q-15 -35 -54 -35 q-5 0 -16.5 0 q-11.5 0 -22.5 0 q-11 0 -17 0 q-29 0 -44.5 9 q-15.5 9 -21 30.5 q-5.5 21.5 -5.5 60.5 l0 746 ZM118 280 l324 0 l0 -68 l-324 0 l0 68 ZM80 464 l387 0 l0 -252 l-70 0 l0 186 l-317 0 l0 66 ZM252 836 l65 0 l0 -248 l-65 0 l0 248 ZM83 778 l63 0 l0 -169 l277 0 l0 169 l64 0 l0 -230 l-404 0 l0 230 ZM104 -52 l-4 61 l36 27 l300 68 q0 -14 2.5 -32.5 q2.5 -18.5 4.5 -30.5 q-105 -26 -168.5 -42 q-63.5 -16 -98 -25 q-34.5 -9 -49.5 -14.5 q-15 -5.5 -23 -11.5 ZM104 -52 q-2 9 -6.5 21 q-4.5 12 -10 24 q-5.5 12 -10.5 19 q9 5 15.5 16 q6.5 11 6.5 38 l0 214 l64 0 l0 -278 q0 0 -9 -5 q-9 -5 -20.5 -13 q-11.5 -8 -20.5 -17.5 q-9 -9.5 -9 -18.5 Z" /><glyph glyph-name="" unicode="&#x524d;" d="M53 682 l894 0 l0 -69 l-894 0 l0 69 ZM156 360 l281 0 l0 -59 l-281 0 l0 59 ZM156 200 l281 0 l0 -59 l-281 0 l0 59 ZM604 514 l70 0 l0 -410 l-70 0 l0 410 ZM409 523 l73 0 l0 -517 q0 -28 -7.5 -44 q-7.5 -16 -28.5 -25 q-21 -9 -54.5 -11 q-33.5 -2 -84.5 -2 q-3 14 -10.5 33.5 q-7.5 19.5 -15.5 33.5 q38 -1 69 -1.5 q31 -0.5 41 0.5 q11 0 14.5 4 q3.5 4 3.5 13 l0 516 ZM807 544 l74 0 l0 -531 q0 -32 -9 -49.5 q-9 -17.5 -33 -26.5 q-23 -9 -61.5 -11.5 q-38.5 -2.5 -96.5 -1.5 q-3 15 -11 35.5 q-8 20.5 -16 36.5 q45 -2 82 -2 q37 0 50 1 q12 0 16.5 4 q4.5 4 4.5 15 l0 530 ZM208 816 l70 25 q29 -31 57 -71 q28 -40 43 -69 l-74 -28 q-12 29 -39.5 69.5 q-27.5 40.5 -56.5 73.5 ZM723 845 l80 -26 q-28 -47 -60.5 -95 q-32.5 -48 -59.5 -83 l-67 24 q19 25 39 56.5 q20 31.5 37.5 64 q17.5 32.5 30.5 59.5 ZM116 523 l317 0 l0 -64 l-246 0 l0 -534 l-71 0 l0 598 Z" /><glyph glyph-name="" unicode="&#x529e;" d="M87 656 l623 0 l0 -75 l-623 0 l0 75 ZM673 656 l82 0 q0 0 -0.5 -8.5 q-0.5 -8.5 -0.5 -18 q0 -9.5 0 -15.5 q-6 -162 -12.5 -274.5 q-6.5 -112.5 -14.5 -185 q-8 -72.5 -18.5 -113.5 q-10.5 -41 -25.5 -59 q-18 -22 -37.5 -31 q-19.5 -9 -46.5 -12 q-27 -3 -71 -2 q-44 1 -90 3 q-1 18 -8.5 40.5 q-7.5 22.5 -17.5 39.5 q50 -4 92.5 -5 q42.5 -1 61.5 -1 q16 -1 25.5 2.5 q9.5 3.5 17.5 12.5 q13 13 22.5 51.5 q9.5 38.5 17 110 q7.5 71.5 13.5 181.5 q6 110 11 266 l0 18 ZM389 839 l80 0 l0 -175 q0 -68 -6 -144 q-6 -76 -25 -155.5 q-19 -79.5 -59 -158.5 q-40 -79 -107 -152.5 q-67 -73.5 -169 -137.5 q-6 9 -17 20.5 q-11 11.5 -22.5 22.5 q-11.5 11 -21.5 17 q97 60 161 128 q64 68 101.5 140.5 q37.5 72.5 55.5 145.5 q18 73 23.5 142.5 q5.5 69.5 5.5 132.5 l0 174 ZM183 495 l68 -28 q-15 -44 -36 -95 q-21 -51 -46 -100 q-25 -49 -55 -87 l-69 40 q31 36 57 82 q26 46 47 95 q21 49 34 93 ZM778 481 l69 23 q24 -49 46.5 -105.5 q22.5 -56.5 40.5 -110 q18 -53.5 26 -94.5 l-74 -27 q-8 40 -24.5 94.5 q-16.5 54.5 -38.5 112 q-22 57.5 -45 107.5 Z" /><glyph glyph-name="" unicode="&#x52a9;" d="M466 613 l424 0 l0 -71 l-424 0 l0 71 ZM857 613 l72 0 q0 0 0 -7.5 q0 -7.5 0 -16 q0 -8.5 0 -13.5 q-4 -159 -8 -268.5 q-4 -109.5 -9.5 -179 q-5.5 -69.5 -14.5 -107.5 q-9 -38 -21 -54 q-14 -20 -31 -28 q-17 -8 -41 -11 q-23 -2 -60.5 -1.5 q-37.5 0.5 -77.5 2.5 q-1 16 -7 36.5 q-6 20.5 -16 35.5 q43 -3 79 -4 q36 -1 51 -1 q13 0 22 3 q9 3 16 12 q10 12 17 48 q7 36 12.5 103.5 q5.5 67.5 9.5 174.5 q4 107 7 260 l0 16 ZM633 840 l73 0 q0 -115 -3 -225.5 q-3 -110.5 -16 -212.5 q-13 -102 -42.5 -191.5 q-29.5 -89.5 -82.5 -163.5 q-53 -74 -136 -129 q-9 14 -25 30 q-16 16 -30 26 q80 50 130 118.5 q50 68.5 77.5 153 q27.5 84.5 38.5 180.5 q11 96 13.5 200.5 q2.5 104.5 2.5 213.5 ZM106 791 l327 0 l0 -651 l-71 0 l0 583 l-188 0 l0 -646 l-68 0 l0 714 ZM34 95 q56 11 130 26 q74 15 157.5 33 q83.5 18 166.5 36 l6 -68 q-79 -18 -159 -37 q-80 -19 -153.5 -36 q-73.5 -17 -133.5 -31 l-14 77 ZM142 576 l253 0 l0 -67 l-253 0 l0 67 ZM142 362 l253 0 l0 -67 l-253 0 l0 67 Z" /><glyph glyph-name="" unicode="&#x5355;" d="M459 632 l77 0 l0 -711 l-77 0 l0 711 ZM221 437 l0 -108 l564 0 l0 108 l-564 0 ZM221 603 l0 -106 l564 0 l0 106 l-564 0 ZM148 667 l713 0 l0 -402 l-713 0 l0 402 ZM54 170 l895 0 l0 -70 l-895 0 l0 70 ZM235 806 l64 30 q31 -34 62 -75.5 q31 -41.5 46 -73.5 l-67 -33 q-15 30 -44.5 73.5 q-29.5 43.5 -60.5 78.5 ZM709 836 l81 -27 q-30 -48 -64.5 -97.5 q-34.5 -49.5 -63.5 -83.5 l-64 25 q19 24 40 56 q21 32 40 65.5 q19 33.5 31 61.5 Z" /><glyph glyph-name="" unicode="&#x53f8;" d="M88 776 l754 0 l0 -72 l-754 0 l0 72 ZM95 598 l603 0 l0 -66 l-603 0 l0 66 ZM812 776 l76 0 l0 -744 q0 -38 -9.5 -59.5 q-9.5 -21.5 -36.5 -31.5 q-26 -10 -73 -12 q-47 -2 -114 -2 q-1 12 -5.5 26.5 q-4.5 14.5 -10 29.5 q-5.5 15 -10.5 26 q34 -1 66.5 -1.5 q32.5 -0.5 57 0 q24.5 0.5 35.5 0.5 q14 0 19 5.5 q5 5.5 5 19.5 l0 743 ZM159 424 l73 0 l0 -395 l-73 0 l0 395 ZM218 424 l410 0 l0 -320 l-410 0 l0 66 l337 0 l0 187 l-337 0 l0 67 Z" /><glyph glyph-name="" unicode="&#x5408;" d="M248 513 l505 0 l0 -69 l-505 0 l0 69 ZM230 48 l536 0 l0 -70 l-536 0 l0 70 ZM196 324 l621 0 l0 -398 l-79 0 l0 330 l-466 0 l0 -334 l-76 0 l0 402 ZM517 843 l66 -34 q-56 -83 -133 -157.5 q-77 -74.5 -168 -135 q-91 -60.5 -188 -103.5 q-9 16 -24 34.5 q-15 18.5 -30 31.5 q95 38 185 93 q90 55 165.5 124 q75.5 69 126.5 147 ZM532 784 q91 -101 201 -170.5 q110 -69.5 236 -123.5 q-15 -12 -29.5 -31 q-14.5 -19 -23.5 -37 q-85 41 -162.5 88.5 q-77.5 47.5 -148.5 106.5 q-71 59 -137 135 l64 32 Z" /><glyph glyph-name="" unicode="&#x5546;" d="M118 523 l737 0 l0 -64 l-665 0 l0 -537 l-72 0 l0 601 ZM816 523 l69 0 l0 -520 q0 -29 -8.5 -44 q-8.5 -15 -30.5 -23 q-22 -8 -62 -9 q-40 -1 -104 -1 q-3 13 -9 29 q-6 16 -14 29 q31 -1 59.5 -1 q28.5 0 49 0.5 q20.5 0.5 27.5 0.5 q13 0 18 4.5 q5 4.5 5 15.5 l0 519 ZM352 277 l330 0 l0 -228 l-330 0 l0 55 l267 0 l0 117 l-267 0 l0 56 ZM314 277 l64 0 l0 -276 l-64 0 l0 276 ZM61 732 l879 0 l0 -65 l-879 0 l0 65 ZM274 643 l67 23 q17 -26 36 -58 q19 -32 28 -54 l-69 -28 q-10 23 -27.5 56.5 q-17.5 33.5 -34.5 60.5 ZM659 660 l80 -18 q-25 -41 -52.5 -82.5 q-27.5 -41.5 -50.5 -70.5 l-63 18 q15 21 31 48 q16 27 30.5 55 q14.5 28 24.5 50 ZM441 825 l72 19 q16 -31 31.5 -66.5 q15.5 -35.5 23.5 -61.5 l-75 -24 q-8 27 -23 64.5 q-15 37.5 -29 68.5 ZM560 404 l43 45 q33 -22 70 -49 q37 -27 71.5 -53 q34.5 -26 56.5 -45 l-45 -52 q-21 20 -55 47.5 q-34 27.5 -71 55.5 q-37 28 -70 51 ZM395 442 l56 -26 q-26 -30 -59.5 -61 q-33.5 -31 -69 -59.5 q-35.5 -28.5 -67.5 -50.5 q-2 7 -8.5 18 q-6.5 11 -13.5 23 q-7 12 -13 19 q45 27 93 64 q48 37 82 73 Z" /><glyph glyph-name="" unicode="&#x5609;" d="M65 772 l874 0 l0 -59 l-874 0 l0 59 ZM65 281 l867 0 l0 -59 l-867 0 l0 59 ZM77 153 l369 0 l0 -57 l-369 0 l0 57 ZM578 9 l274 0 l0 -56 l-274 0 l0 56 ZM132 652 l739 0 l0 -56 l-739 0 l0 56 ZM459 840 l76 0 l0 -225 l-76 0 l0 225 ZM241 489 l0 -79 l522 0 l0 79 l-522 0 ZM170 542 l666 0 l0 -185 l-666 0 l0 185 ZM547 174 l345 0 l0 -250 l-70 0 l0 194 l-207 0 l0 -197 l-68 0 l0 253 ZM419 153 l69 0 q0 0 0 -10 q0 -10 -2 -18 q-8 -81 -17 -121 q-9 -40 -25 -55 q-10 -11 -23 -15.5 q-13 -4.5 -32 -5.5 q-15 -1 -43.5 -1 q-28.5 0 -61.5 2 q-1 13 -5 29.5 q-4 16.5 -11 28.5 q29 -3 55 -4 q26 -1 36 0 q11 0 18 1 q7 1 12 6 q10 9 17 43.5 q7 34.5 13 110.5 l0 9 ZM236 218 l67 0 q-6 -56 -18.5 -102.5 q-12.5 -46.5 -37.5 -84 q-25 -37.5 -66.5 -65 q-41.5 -27.5 -103.5 -47.5 q-5 11 -16.5 26.5 q-11.5 15.5 -21.5 23.5 q75 21 115.5 55.5 q40.5 34.5 58 82.5 q17.5 48 23.5 111 ZM642 362 l76 -17 q-16 -27 -32.5 -52 q-16.5 -25 -30.5 -44 l-65 15 q13 21 28 49 q15 28 24 49 ZM286 348 l69 14 q16 -15 29 -35.5 q13 -20.5 19 -37.5 l-73 -17 q-5 17 -17.5 38 q-12.5 21 -26.5 38 Z" /><glyph glyph-name="" unicode="&#x56fd;" d="M242 640 l514 0 l0 -67 l-514 0 l0 67 ZM270 430 l462 0 l0 -65 l-462 0 l0 65 ZM228 196 l549 0 l0 -64 l-549 0 l0 64 ZM459 619 l71 0 l0 -458 l-71 0 l0 458 ZM592 320 l49 27 q29 -24 57.5 -55 q28.5 -31 44.5 -55 l-52 -31 q-15 24 -43 56.5 q-28 32.5 -56 57.5 ZM86 795 l828 0 l0 -875 l-79 0 l0 805 l-673 0 l0 -805 l-76 0 l0 875 ZM126 40 l745 0 l0 -70 l-745 0 l0 70 Z" /><glyph glyph-name="" unicode="&#x5733;" d="M645 762 l71 0 l0 -713 l-71 0 l0 713 ZM841 815 l76 0 l0 -882 l-76 0 l0 882 ZM445 811 l74 0 l0 -340 q0 -96 -8 -190 q-8 -94 -35.5 -182 q-27.5 -88 -85.5 -166 q-8 7 -20.5 15.5 q-12.5 8.5 -25.5 16 q-13 7.5 -23 11.5 q56 72 82.5 152.5 q26.5 80.5 34 167 q7.5 86.5 7.5 175.5 l0 340 ZM52 596 l325 0 l0 -74 l-325 0 l0 74 ZM178 828 l75 0 l0 -668 l-75 0 l0 668 ZM36 129 q42 14 96.5 33.5 q54.5 19.5 115.5 42 q61 22.5 122 45.5 l13 -69 q-84 -34 -168.5 -68 q-84.5 -34 -153.5 -60 l-25 76 Z" /><glyph glyph-name="" unicode="&#x573a;" d="M50 596 l304 0 l0 -71 l-304 0 l0 71 ZM173 828 l71 0 l0 -670 l-71 0 l0 670 ZM36 129 q40 13 91 31.5 q51 18.5 109 40 q58 21.5 115 42.5 l14 -69 q-79 -32 -159 -63.5 q-80 -31.5 -145 -57.5 l-25 76 ZM375 793 l419 0 l0 -71 l-419 0 l0 71 ZM865 517 l75 0 q0 0 -0.5 -7 q-0.5 -7 -0.5 -15.5 q0 -8.5 -1 -14.5 q-8 -131 -16 -223 q-8 -92 -17 -151.5 q-9 -59.5 -19.5 -92.5 q-10.5 -33 -24.5 -49 q-14 -18 -30 -25.5 q-16 -7.5 -38 -9.5 q-18 -2 -46.5 -2 q-28.5 0 -60.5 2 q-1 16 -6.5 36.5 q-5.5 20.5 -14.5 34.5 q31 -3 57.5 -3.5 q26.5 -0.5 39.5 -0.5 q12 -1 19.5 2 q7.5 3 15.5 12 q14 15 26 66.5 q12 51.5 22.5 154.5 q10.5 103 19.5 271 l0 15 ZM411 434 q-3 9 -8.5 22 q-5.5 13 -11.5 26.5 q-6 13.5 -12 22.5 q19 3 45.5 16.5 q26.5 13.5 55.5 32.5 q15 10 46.5 31.5 q31.5 21.5 71 52 q39.5 30.5 81 67 q41.5 36.5 77.5 74.5 l0 6 l37 14 l56 -42 q-101 -90 -198.5 -162.5 q-97.5 -72.5 -187.5 -122.5 l0 -2 q0 0 -8 -3.5 q-8 -3.5 -18 -9 q-10 -5.5 -18 -11.5 q-8 -6 -8 -12 ZM411 434 l0 63 l42 20 l439 0 l-1 -71 l-393 0 q-35 0 -57.5 -3 q-22.5 -3 -29.5 -9 ZM733 477 l66 -13 q-51 -183 -141.5 -319.5 q-90.5 -136.5 -220.5 -223.5 q-6 7 -16.5 15 q-10.5 8 -21.5 15.5 q-11 7.5 -20 12.5 q133 80 220.5 211 q87.5 131 133.5 302 ZM579 476 l67 -13 q-33 -103 -93.5 -185 q-60.5 -82 -135.5 -137 q-5 6 -15.5 14.5 q-10.5 8.5 -21.5 16.5 q-11 8 -19 12 q76 49 132.5 124 q56.5 75 85.5 168 Z" /><glyph glyph-name="" unicode="&#x2f24;&#x5927;" d="M62 553 l880 0 l0 -77 l-880 0 l0 77 ZM549 522 q34 -121 89.5 -225.5 q55.5 -104.5 136 -182.5 q80.5 -78 183.5 -122 q-9 -8 -19.5 -20.5 q-10.5 -12.5 -20.5 -25.5 q-10 -13 -16 -24 q-108 52 -190.5 137 q-82.5 85 -140.5 198 q-58 113 -96 247 l74 18 ZM461 839 l81 0 q0 -65 -3.5 -144.5 q-3.5 -79.5 -15.5 -165 q-12 -85.5 -39.5 -172 q-27.5 -86.5 -76 -167 q-48.5 -80.5 -123.5 -149.5 q-75 -69 -184 -119 q-9 15 -25.5 32.5 q-16.5 17.5 -31.5 29.5 q106 46 178.5 110 q72.5 64 118.5 140 q46 76 71 157 q25 81 35 161.5 q10 80.5 12.5 153.5 q2.5 73 2.5 133 Z" /><glyph glyph-name="" unicode="&#x5a92;" d="M52 634 l273 0 l0 -70 l-273 0 l0 70 ZM63 269 l48 47 q49 -35 100.5 -78 q51.5 -43 95 -86.5 q43.5 -43.5 69.5 -80.5 l-53 -53 q-25 37 -67.5 82 q-42.5 45 -93 89.5 q-50.5 44.5 -99.5 79.5 ZM297 634 l14 0 l12 2 l43 -7 q-10 -196 -44.5 -334 q-34.5 -138 -94.5 -228.5 q-60 -90.5 -148 -144.5 q-7 13 -20 31 q-13 18 -25 28 q78 43 133.5 127 q55.5 84 88.5 211.5 q33 127.5 41 299.5 l0 15 ZM63 269 q15 54 31 123.5 q16 69.5 30.5 147 q14.5 77.5 26 155 q11.5 77.5 16.5 144.5 l69 -4 q-8 -71 -20 -150 q-12 -79 -27 -158.5 q-15 -79.5 -31 -152 q-16 -72.5 -31 -129.5 l-64 24 ZM388 731 l558 0 l0 -66 l-558 0 l0 66 ZM389 275 l556 0 l0 -65 l-556 0 l0 65 ZM513 577 l300 0 l0 -59 l-300 0 l0 59 ZM477 840 l69 0 l0 -413 l238 0 l0 413 l72 0 l0 -476 l-379 0 l0 476 ZM632 375 l73 0 l0 -455 l-73 0 l0 455 ZM608 245 l59 -21 q-27 -56 -69.5 -110 q-42.5 -54 -92.5 -97.5 q-50 -43.5 -102 -71.5 q-6 9 -15 20 q-9 11 -18.5 21.5 q-9.5 10.5 -17.5 17.5 q50 23 99.5 61 q49.5 38 90.5 84.5 q41 46.5 66 95.5 ZM723 243 q27 -45 68 -90.5 q41 -45.5 88 -83 q47 -37.5 93 -60.5 q-13 -10 -28.5 -27.5 q-15.5 -17.5 -25.5 -32.5 q-45 30 -92 73.5 q-47 43.5 -88 95 q-41 51.5 -69 103.5 l54 22 Z" /><glyph glyph-name="" unicode="&#x5bbe;" d="M80 739 l843 0 l0 -210 l-79 0 l0 140 l-688 0 l0 -140 l-76 0 l0 210 ZM426 824 l79 20 q19 -25 39.5 -57 q20.5 -32 31.5 -55 l-83 -24 q-10 23 -29 56 q-19 33 -38 60 ZM762 624 l41 -61 q-76 -17 -172.5 -31 q-96.5 -14 -198.5 -24.5 q-102 -10.5 -199 -16.5 q-1 13 -6.5 30 q-5.5 17 -11.5 29 q72 6 147 14 q75 8 148 17.5 q73 9.5 137.5 20 q64.5 10.5 114.5 22.5 ZM215 550 l77 0 l0 -364 l-77 0 l0 364 ZM274 417 l598 0 l0 -66 l-598 0 l0 66 ZM322 117 l74 -34 q-40 -29 -88.5 -58.5 q-48.5 -29.5 -99 -56 q-50.5 -26.5 -95.5 -46.5 q-7 8 -18 19 q-11 11 -23 22 q-12 11 -21 18 q47 17 96.5 39 q49.5 22 94.5 47 q45 25 80 50 ZM598 69 l39 54 q34 -14 74.5 -33 q40.5 -19 80.5 -38.5 q40 -19.5 75.5 -37.5 q35.5 -18 61.5 -32 l-40 -62 q-25 15 -60 33.5 q-35 18.5 -74.5 39 q-39.5 20.5 -80 40.5 q-40.5 20 -76.5 36 ZM63 210 l874 0 l0 -66 l-874 0 l0 66 ZM627 397 l78 0 l0 -218 l-78 0 l0 218 Z" /><glyph glyph-name="" unicode="&#x5bdf;" d="M275 671 l67 -11 q-37 -68 -100 -132.5 q-63 -64.5 -155 -115.5 q-7 12 -19.5 25.5 q-12.5 13.5 -23.5 20.5 q87 44 144.5 101.5 q57.5 57.5 86.5 111.5 ZM270 607 l176 0 l0 -51 l-219 0 l43 51 ZM428 608 l13 0 l12 3 l42 -20 q-35 -98 -100.5 -173 q-65.5 -75 -147.5 -127 q-82 -52 -168 -83 q-6 13 -17.5 29 q-11.5 16 -21.5 25 q81 26 158.5 73 q77.5 47 138.5 113 q61 66 91 148 l0 12 ZM562 608 l275 0 l0 -60 l-275 0 l0 60 ZM335 377 l343 0 l0 -64 l-343 0 l0 64 ZM161 237 l680 0 l0 -65 l-680 0 l0 65 ZM547 670 q49 -140 155 -237 q106 -97 264 -134 q-12 -10 -25 -28.5 q-13 -18.5 -20 -32.5 q-109 31 -193 88.5 q-84 57.5 -143.5 140 q-59.5 82.5 -97.5 187.5 l60 16 ZM474 213 l73 0 l0 -209 q0 -30 -7.5 -45 q-7.5 -15 -30.5 -23 q-22 -8 -58.5 -9 q-36.5 -1 -90.5 -1 q-2 15 -9 32.5 q-7 17.5 -14 31.5 q29 -1 53 -1.5 q24 -0.5 41.5 0 q17.5 0.5 24.5 1.5 q11 0 14.5 3.5 q3.5 3.5 3.5 11.5 l0 208 ZM291 148 l68 -24 q-30 -37 -71 -71.5 q-41 -34.5 -87 -64 q-46 -29.5 -90 -51.5 q-6 8 -15 18.5 q-9 10.5 -19 21 q-10 10.5 -18 16.5 q66 27 129.5 68 q63.5 41 102.5 87 ZM637 105 l50 45 q41 -22 88.5 -49 q47.5 -27 90.5 -54 q43 -27 71 -50 l-52 -51 q-27 22 -69 50 q-42 28 -89 56.5 q-47 28.5 -90 52.5 ZM234 482 l40 34 q27 -16 57 -37.5 q30 -21.5 47 -38.5 l-42 -37 q-16 17 -45 39.5 q-29 22.5 -57 39.5 ZM137 408 l47 29 q26 -17 53.5 -40.5 q27.5 -23.5 43.5 -41.5 l-48 -34 q-15 20 -42 44 q-27 24 -54 43 ZM814 608 l15 0 l13 4 l44 -28 q-30 -58 -76 -116 q-46 -58 -92 -97 q-8 11 -20.5 23 q-12.5 12 -22.5 20 q27 24 53.5 54.5 q26.5 30.5 49 64 q22.5 33.5 36.5 62.5 l0 13 ZM69 756 l862 0 l0 -152 l-75 0 l0 89 l-716 0 l0 -89 l-71 0 l0 152 ZM437 827 l73 17 q16 -24 31 -54 q15 -30 22 -52 l-76 -19 q-7 21 -20.5 52 q-13.5 31 -29.5 56 Z" /><glyph glyph-name="" unicode="&#x5c4a;" d="M142 790 l75 0 l0 -292 q0 -63 -4 -138 q-4 -75 -16 -153 q-12 -78 -35.5 -151.5 q-23.5 -73.5 -63.5 -134.5 q-6 6 -18.5 13.5 q-12.5 7.5 -25 14.5 q-12.5 7 -22.5 10 q38 59 60 128 q22 69 32.5 141 q10.5 72 14 141 q3.5 69 3.5 129 l0 292 ZM187 790 l696 0 l0 -266 l-696 0 l0 69 l620 0 l0 128 l-620 0 l0 69 ZM315 214 l544 0 l0 -62 l-544 0 l0 62 ZM315 24 l544 0 l0 -67 l-544 0 l0 67 ZM545 515 l73 0 l0 -526 l-73 0 l0 526 ZM280 401 l614 0 l0 -480 l-73 0 l0 413 l-470 0 l0 -413 l-71 0 l0 480 Z" /><glyph glyph-name="" unicode="&#x5e74;&#xf98e;" d="M277 844 l76 -20 q-28 -73 -65.5 -142.5 q-37.5 -69.5 -81.5 -129 q-44 -59.5 -91 -104.5 q-7 6 -18.5 15.5 q-11.5 9.5 -24 18.5 q-12.5 9 -22.5 14 q48 42 90.5 96.5 q42.5 54.5 77.5 119 q35 64.5 59 132.5 ZM262 719 l645 0 l0 -72 l-682 0 l37 72 ZM213 493 l671 0 l0 -71 l-596 0 l0 -236 l-75 0 l0 307 ZM48 223 l906 0 l0 -72 l-906 0 l0 72 ZM512 681 l77 0 l0 -761 l-77 0 l0 761 Z" /><glyph glyph-name="" unicode="&#x5e93;" d="M260 549 l652 0 l0 -68 l-652 0 l0 68 ZM232 144 l722 0 l0 -70 l-722 0 l0 70 ZM593 432 l74 0 l0 -511 l-74 0 l0 511 ZM325 245 q-2 8 -6.5 21.5 q-4.5 13.5 -9.5 27.5 q-5 14 -10 24 q14 3 27 18.5 q13 15.5 28 40.5 q8 11 23.5 38.5 q15.5 27.5 34.5 65 q19 37.5 37.5 80.5 q18.5 43 32.5 87 l77 -27 q-25 -60 -55.5 -120.5 q-30.5 -60.5 -63.5 -115 q-33 -54.5 -65 -98.5 l0 -1 q0 0 -7.5 -4 q-7.5 -4 -17.5 -10.5 q-10 -6.5 -17.5 -13.5 q-7.5 -7 -7.5 -13 ZM325 245 l0 59 l43 23 l520 0 l0 -68 l-469 0 q-38 0 -62.5 -4 q-24.5 -4 -31.5 -10 ZM158 739 l794 0 l0 -71 l-794 0 l0 71 ZM121 739 l74 0 l0 -289 q0 -58 -3.5 -127 q-3.5 -69 -13.5 -141.5 q-10 -72.5 -30 -140.5 q-20 -68 -53 -126 q-6 7 -18 15.5 q-12 8.5 -24 16.5 q-12 8 -22 11 q31 54 49 116.5 q18 62.5 27 128.5 q9 66 11.5 129.5 q2.5 63.5 2.5 117.5 l0 289 ZM469 821 l73 19 q20 -26 38 -59.5 q18 -33.5 26 -57.5 l-77 -23 q-7 24 -23.5 58.5 q-16.5 34.5 -36.5 62.5 Z" /><glyph glyph-name="" unicode="&#x5e97;" d="M547 493 l366 0 l0 -69 l-366 0 l0 69 ZM331 40 l499 0 l0 -67 l-499 0 l0 67 ZM511 612 l76 0 l0 -366 l-76 0 l0 366 ZM291 289 l574 0 l0 -354 l-76 0 l0 284 l-424 0 l0 -286 l-74 0 l0 356 ZM158 718 l786 0 l0 -72 l-786 0 l0 72 ZM125 718 l77 0 l0 -262 q0 -58 -3.5 -127.5 q-3.5 -69.5 -14.5 -142 q-11 -72.5 -32 -141 q-21 -68.5 -56 -125.5 q-6 7 -18.5 15 q-12.5 8 -25 16 q-12.5 8 -22.5 12 q33 54 52 117 q19 63 28.5 129 q9.5 66 12 129.5 q2.5 63.5 2.5 117.5 l0 262 ZM466 820 l73 17 q23 -31 43 -69.5 q20 -38.5 27 -67.5 l-77 -22 q-7 30 -25.5 70 q-18.5 40 -40.5 72 Z" /><glyph glyph-name="" unicode="&#x5f80;" d="M269 615 l67 -26 q-32 -59 -76 -117.5 q-44 -58.5 -92 -110.5 q-48 -52 -96 -92 q-3 9 -10.5 23 q-7.5 14 -15.5 28 q-8 14 -15 23 q44 33 88.5 77 q44.5 44 83.5 94 q39 50 66 101 ZM249 838 l71 -28 q-28 -43 -67 -87 q-39 -44 -82.5 -83.5 q-43.5 -39.5 -86.5 -69.5 q-4 9 -11 20.5 q-7 11.5 -15 23 q-8 11.5 -14 18.5 q39 26 78 60.5 q39 34.5 72.5 72 q33.5 37.5 54.5 73.5 ZM177 430 l74 74 l3 -3 l0 -581 l-77 0 l0 510 ZM385 353 l515 0 l0 -72 l-515 0 l0 72 ZM320 23 l638 0 l0 -72 l-638 0 l0 72 ZM349 649 l583 0 l0 -71 l-583 0 l0 71 ZM603 609 l78 0 l0 -621 l-78 0 l0 621 ZM548 819 l68 25 q26 -38 51 -83.5 q25 -45.5 37 -78.5 l-73 -29 q-10 33 -33.5 80 q-23.5 47 -49.5 86 Z" /><glyph glyph-name="" unicode="&#x60a6;" d="M450 812 l64 24 q28 -39 55.5 -87 q27.5 -48 38.5 -83 l-69 -28 q-8 23 -22 53.5 q-14 30.5 -31.5 62.5 q-17.5 32 -35.5 58 ZM791 841 l77 -24 q-26 -56 -54.5 -114 q-28.5 -58 -56.5 -100 l-65 24 q17 29 35.5 66.5 q18.5 37.5 35 76.5 q16.5 39 28.5 71 ZM480 571 l0 -185 l343 0 l0 185 l-343 0 ZM405 639 l495 0 l0 -322 l-495 0 l0 322 ZM529 333 l77 0 q-5 -77 -18.5 -141 q-13.5 -64 -41.5 -115.5 q-28 -51.5 -77 -90 q-49 -38.5 -127 -66.5 q-6 13 -19 31 q-13 18 -25 27 q69 23 113 56.5 q44 33.5 68 77.5 q24 44 34.5 99 q10.5 55 15.5 122 ZM696 339 l72 0 l0 -308 q0 -19 4.5 -24.5 q4.5 -5.5 22.5 -5.5 q3 0 13.5 0 q10.5 0 22.5 0 q12 0 23 0 q11 0 16 0 q12 0 18 9 q6 9 8 35 q2 26 3 80 q8 -6 19.5 -12 q11.5 -6 24 -10.5 q12.5 -4.5 22.5 -7.5 q-4 -64 -12.5 -99.5 q-8.5 -35.5 -26 -49 q-17.5 -13.5 -48.5 -13.5 q-6 0 -19 0 q-13 0 -28 0 q-15 0 -28 0 q-13 0 -18 0 q-36 0 -55.5 8.5 q-19.5 8.5 -26.5 30 q-7 21.5 -7 59.5 l0 308 ZM180 840 l75 0 l0 -919 l-75 0 l0 919 ZM86 647 l61 -9 q-2 -40 -8.5 -89 q-6.5 -49 -17 -96.5 q-10.5 -47.5 -23.5 -84.5 l-63 22 q13 33 23.5 77.5 q10.5 44.5 17.5 92 q7 47.5 10 87.5 ZM264 656 l53 22 q23 -44 44.5 -95.5 q21.5 -51.5 30.5 -86.5 l-57 -28 q-6 25 -17 57 q-11 32 -25 67 q-14 35 -29 64 Z" /><glyph glyph-name="" unicode="&#x627f;" d="M469 606 l76 0 l0 -581 q0 -35 -9.5 -53 q-9.5 -18 -35.5 -27 q-25 -9 -67.5 -11.5 q-42.5 -2.5 -106.5 -2.5 q-3 16 -11 37.5 q-8 21.5 -17 36.5 q51 -2 92.5 -2.5 q41.5 -0.5 55.5 0.5 q13 1 18 5.5 q5 4.5 5 16.5 l0 581 ZM201 798 l551 0 l0 -69 l-551 0 l0 69 ZM730 798 l19 0 l17 3 l52 -37 q-38 -39 -88.5 -77.5 q-50.5 -38.5 -106 -71.5 q-55.5 -33 -110.5 -58 q-7 11 -20.5 25.5 q-13.5 14.5 -23.5 23.5 q49 20 99 50 q50 30 93 63.5 q43 33.5 69 63.5 l0 15 ZM352 514 l307 0 l0 -64 l-307 0 l0 64 ZM69 582 l217 0 l0 -69 l-217 0 l0 69 ZM334 360 l342 0 l0 -65 l-342 0 l0 65 ZM288 202 l433 0 l0 -66 l-433 0 l0 66 ZM887 590 l60 -48 q-26 -32 -56.5 -65.5 q-30.5 -33.5 -61.5 -64 q-31 -30.5 -58 -54.5 l-47 41 q26 24 56 57 q30 33 58.5 68.5 q28.5 35.5 48.5 65.5 ZM735 613 q17 -113 47 -215.5 q30 -102.5 75.5 -183 q45.5 -80.5 109.5 -129.5 q-9 -7 -19.5 -18 q-10.5 -11 -20 -23 q-9.5 -12 -16.5 -22 q-66 58 -113.5 146 q-47.5 88 -78.5 199 q-31 111 -50 235 l66 11 ZM266 582 l15 0 l14 3 l46 -17 q-19 -128 -55 -234.5 q-36 -106.5 -84.5 -188.5 q-48.5 -82 -106.5 -135 q-6 9 -16.5 19.5 q-10.5 10.5 -21.5 20 q-11 9.5 -20 15.5 q56 49 102 123.5 q46 74.5 78.5 170 q32.5 95.5 48.5 206.5 l0 17 Z" /><glyph glyph-name="" unicode="&#x6280;" d="M378 683 l551 0 l0 -70 l-551 0 l0 70 ZM398 462 l441 0 l0 -69 l-441 0 l0 69 ZM614 840 l74 0 l0 -417 l-74 0 l0 417 ZM495 412 q57 -158 176 -270 q119 -112 294 -158 q-8 -8 -17.5 -19.5 q-9.5 -11.5 -17.5 -23.5 q-8 -12 -14 -22 q-180 54 -301.5 175 q-121.5 121 -186.5 298 l67 20 ZM833 462 l14 0 l14 3 l48 -21 q-32 -107 -87 -192 q-55 -85 -127.5 -149.5 q-72.5 -64.5 -157 -109.5 q-84.5 -45 -176.5 -72 q-4 10 -10.5 22.5 q-6.5 12.5 -14.5 25 q-8 12.5 -16 19.5 q86 23 166.5 63 q80.5 40 149 97.5 q68.5 57.5 119.5 133 q51 75.5 78 167.5 l0 13 ZM37 311 q42 10 95 24.5 q53 14.5 112.5 31 q59.5 16.5 118.5 33.5 l10 -69 q-82 -25 -164.5 -49 q-82.5 -24 -149.5 -44 l-22 73 ZM49 638 l314 0 l0 -71 l-314 0 l0 71 ZM178 840 l74 0 l0 -829 q0 -32 -8 -49 q-8 -17 -28 -26 q-20 -9 -52.5 -11.5 q-32.5 -2.5 -84.5 -1.5 q-2 14 -9 33.5 q-7 19.5 -14 35.5 q35 -1 64 -1 q29 0 39 0 q19 0 19 20 l0 829 Z" /><glyph glyph-name="" unicode="&#x62a5;" d="M475 464 l396 0 l0 -69 l-396 0 l0 69 ZM588 426 q34 -96 88.5 -182.5 q54.5 -86.5 127.5 -153 q73 -66.5 159 -104.5 q-8 -7 -18 -18.5 q-10 -11.5 -19 -23 q-9 -11.5 -15 -21.5 q-89 44 -163.5 117 q-74.5 73 -131 167.5 q-56.5 94.5 -93.5 201.5 l65 17 ZM851 464 l14 0 l14 2 l49 -16 q-24 -114 -74 -215.5 q-50 -101.5 -125 -182.5 q-75 -81 -175 -134 q-8 13 -23 29 q-15 16 -28 26 q71 36 128.5 86.5 q57.5 50.5 101.5 113 q44 62.5 73.5 132.5 q29.5 70 44.5 143 l0 16 ZM820 806 l76 0 q0 0 0 -12 q0 -12 -1 -20 q-4 -106 -12 -155 q-8 -49 -25 -66 q-13 -14 -30.5 -19 q-17.5 -5 -42.5 -7 q-24 -1 -68 -0.5 q-44 0.5 -94 3.5 q-1 14 -6.5 31.5 q-5.5 17.5 -14.5 30.5 q33 -2 64 -3.5 q31 -1.5 54 -2 q23 -0.5 33 -0.5 q16 0 25.5 1.5 q9.5 1.5 16.5 6.5 q7 8 11.5 30 q4.5 22 8 63.5 q3.5 41.5 5.5 107.5 l0 11 ZM32 311 q45 11 101 26 q56 15 119 32.5 q63 17.5 125 35.5 l9 -72 q-87 -26 -174.5 -52.5 q-87.5 -26.5 -159.5 -46.5 l-20 77 ZM47 638 l332 0 l0 -73 l-332 0 l0 73 ZM189 840 l76 0 l0 -826 q0 -35 -9.5 -53 q-9.5 -18 -31.5 -27 q-21 -9 -58.5 -11.5 q-37.5 -2.5 -97.5 -2.5 q-2 15 -9 35.5 q-7 20.5 -15 36.5 q42 -1 77 -1 q35 0 45 0 q13 1 18 5.5 q5 4.5 5 16.5 l0 827 ZM423 806 l420 0 l0 -70 l-345 0 l0 -814 l-75 0 l0 884 Z" /><glyph glyph-name="" unicode="&#x2f45;&#x65b9;" d="M68 667 l868 0 l0 -73 l-868 0 l0 73 ZM381 434 l400 0 l0 -73 l-400 0 l0 73 ZM760 434 l78 0 q0 0 -0.5 -7 q-0.5 -7 -0.5 -15 q0 -8 -2 -14 q-9 -142 -20 -230 q-11 -88 -25 -135 q-14 -47 -34 -67 q-17 -19 -37.5 -26 q-20.5 -7 -49.5 -9 q-26 -2 -72 -1 q-46 1 -96 4 q-1 17 -8.5 37.5 q-7.5 20.5 -18.5 35.5 q54 -4 101.5 -5.5 q47.5 -1.5 67.5 -1.5 q17 0 28 2.5 q11 2.5 20 9.5 q15 14 27.5 59 q12.5 45 23 130.5 q10.5 85.5 18.5 219.5 l0 13 ZM342 624 l83 0 q-4 -79 -12 -160 q-8 -81 -26.5 -159 q-18.5 -78 -53 -149.5 q-34.5 -71.5 -91 -132.5 q-56.5 -61 -141.5 -105 q-8 14 -24 31 q-16 17 -31 28 q81 40 133.5 96 q52.5 56 84 121.5 q31.5 65.5 47 138 q15.5 72.5 22 146.5 q6.5 74 9.5 145 ZM440 818 l72 28 q21 -35 42 -76.5 q21 -41.5 31 -71.5 l-76 -33 q-9 30 -29 73.5 q-20 43.5 -40 79.5 Z" /><glyph glyph-name="" unicode="&#x2f47;&#x65e5;" d="M176 772 l656 0 l0 -836 l-80 0 l0 761 l-499 0 l0 -766 l-77 0 l0 841 ZM228 426 l558 0 l0 -74 l-558 0 l0 74 ZM226 71 l561 0 l0 -75 l-561 0 l0 75 Z" /><glyph glyph-name="" unicode="&#x667a;" d="M195 333 l616 0 l0 -411 l-76 0 l0 349 l-466 0 l0 -351 l-74 0 l0 413 ZM237 177 l525 0 l0 -59 l-525 0 l0 59 ZM157 757 l320 0 l0 -61 l-320 0 l0 61 ZM50 601 l453 0 l0 -62 l-453 0 l0 62 ZM237 19 l525 0 l0 -62 l-525 0 l0 62 ZM258 736 l71 0 l0 -99 q0 -36 -8 -78 q-8 -42 -32.5 -86 q-24.5 -44 -72.5 -85.5 q-48 -41.5 -127 -77.5 q-8 12 -22 27.5 q-14 15.5 -27 24.5 q76 30 120 65.5 q44 35.5 65 72.5 q21 37 27 72.5 q6 35.5 6 64.5 l0 99 ZM162 843 l69 -14 q-20 -64 -52.5 -123.5 q-32.5 -59.5 -68.5 -100.5 q-7 6 -18 13 q-11 7 -22.5 14 q-11.5 7 -19.5 10 q38 39 67 92 q29 53 45 109 ZM307 525 q14 -8 40.5 -23.5 q26.5 -15.5 56 -33.5 q29.5 -18 55 -33.5 q25.5 -15.5 36.5 -23.5 l-52 -51 q-14 11 -38.5 29 q-24.5 18 -52 38 q-27.5 20 -53 37 q-25.5 17 -41.5 27 l49 34 ZM615 691 l0 -213 l208 0 l0 213 l-208 0 ZM545 759 l351 0 l0 -349 l-351 0 l0 349 Z" /><glyph glyph-name="" unicode="&#x66a8;" d="M509 804 l421 0 l0 -55 l-421 0 l0 55 ZM714 551 l63 0 l0 -122 q0 -14 4.5 -17.5 q4.5 -3.5 21.5 -3.5 q5 0 21 0 q16 0 32.5 0 q16.5 0 23.5 0 q10 0 15 4.5 q5 4.5 7.5 21.5 q2.5 17 3.5 52 q9 -7 25.5 -13.5 q16.5 -6.5 29.5 -9.5 q-4 -66 -20 -88 q-16 -22 -53 -22 q-5 0 -18 0 q-13 0 -28.5 0 q-15.5 0 -28.5 0 q-13 0 -18 0 q-32 0 -50 6.5 q-18 6.5 -24.5 23 q-6.5 16.5 -6.5 46.5 l0 122 ZM701 775 l65 0 q-3 -92 -14.5 -163.5 q-11.5 -71.5 -38.5 -125.5 q-27 -54 -77 -92.5 q-50 -38.5 -132 -65.5 q-5 12 -16 28.5 q-11 16.5 -21 25.5 q74 22 119.5 55.5 q45.5 33.5 69 80.5 q23.5 47 33 110.5 q9.5 63.5 12.5 146.5 ZM153 698 l276 0 l0 -49 l-276 0 l0 49 ZM140 808 l328 0 l0 -272 l-323 0 l0 52 l259 0 l0 168 l-264 0 l0 52 ZM329 506 l52 20 q27 -34 51.5 -74.5 q24.5 -40.5 36.5 -71.5 l-56 -23 q-11 31 -35 73 q-24 42 -49 76 ZM94 336 l-3 49 l33 23 l293 53 q-1 -12 -1 -27 q0 -15 1 -24 q-102 -21 -163 -33.5 q-61 -12.5 -93.5 -20 q-32.5 -7.5 -46 -12 q-13.5 -4.5 -20.5 -8.5 ZM94 336 q-2 9 -7 20.5 q-5 11.5 -11.5 23 q-6.5 11.5 -12.5 18.5 q14 6 31.5 22 q17.5 16 17.5 47 l0 341 l72 0 l0 -402 q0 0 -9.5 -4.5 q-9.5 -4.5 -22.5 -12.5 q-13 -8 -26.5 -17.5 q-13.5 -9.5 -22.5 -18.5 q-9 -9 -9 -17 ZM53 1 l895 0 l0 -63 l-895 0 l0 63 ZM263 159 l0 -70 l489 0 l0 70 l-489 0 ZM263 270 l0 -69 l489 0 l0 69 l-489 0 ZM191 316 l635 0 l0 -272 l-635 0 l0 272 ZM525 561 l0 51 l38 18 l387 0 l0 -57 l-345 0 q-31 0 -52 -3 q-21 -3 -28 -9 ZM525 561 q-2 7 -6.5 18.5 q-4.5 11.5 -9.5 22 q-5 10.5 -9 16.5 q8 3 13.5 7 q5.5 4 9.5 12 q4 5 9 23 q5 18 9 38 q4 20 6 31 l60 0 q-3 -14 -8 -36 q-5 -22 -11 -46 q-6 -24 -11 -42 q0 0 -8 -4.5 q-8 -4.5 -18.5 -11.5 q-10.5 -7 -18 -14 q-7.5 -7 -7.5 -14 Z" /><glyph glyph-name="" unicode="&#x2f49;&#x6708;" d="M254 787 l521 0 l0 -73 l-521 0 l0 73 ZM254 546 l526 0 l0 -71 l-526 0 l0 71 ZM246 305 l529 0 l0 -73 l-529 0 l0 73 ZM207 787 l76 0 l0 -308 q0 -65 -6.5 -139 q-6.5 -74 -26.5 -149.5 q-20 -75.5 -59.5 -145.5 q-39.5 -70 -104.5 -126 q-5 8 -15.5 19 q-10.5 11 -21.5 20.5 q-11 9.5 -20 14.5 q61 54 96.5 116.5 q35.5 62.5 53 129.5 q17.5 67 23 133.5 q5.5 66.5 5.5 126.5 l0 308 ZM742 787 l79 0 l0 -756 q0 -40 -12 -61 q-12 -21 -40 -31 q-29 -10 -81 -12.5 q-52 -2.5 -132 -2.5 q-2 12 -7.5 26 q-5.5 14 -12 28.5 q-6.5 14.5 -12.5 24.5 q42 -1 80.5 -1.5 q38.5 -0.5 67 0 q28.5 0.5 39.5 0.5 q18 1 24.5 7.5 q6.5 6.5 6.5 22.5 l0 755 Z" /><glyph glyph-name="" unicode="&#x6709;" d="M63 710 l876 0 l0 -70 l-876 0 l0 70 ZM308 353 l469 0 l0 -64 l-469 0 l0 64 ZM255 524 l510 0 l0 -68 l-436 0 l0 -535 l-74 0 l0 603 ZM748 524 l74 0 l0 -510 q0 -33 -9 -51.5 q-9 -18.5 -34 -28.5 q-25 -8 -67.5 -9.5 q-42.5 -1.5 -106.5 -1.5 q-3 15 -10 36 q-7 21 -15 36 q33 -1 62.5 -1.5 q29.5 -0.5 51.5 0 q22 0.5 32 0.5 q13 0 17.5 4.5 q4.5 4.5 4.5 16.5 l0 509 ZM391 840 l76 -18 q-34 -109 -86 -216 q-52 -107 -125 -199.5 q-73 -92.5 -168 -160.5 q-5 9 -14 19.5 q-9 10.5 -18 21 q-9 10.5 -16 17.5 q67 46 122.5 107 q55.5 61 99.5 131.5 q44 70.5 76 146 q32 75.5 53 151.5 ZM308 184 l469 0 l0 -65 l-469 0 l0 65 Z" /><glyph glyph-name="" unicode="&#x673a;" d="M542 783 l250 0 l0 -71 l-250 0 l0 71 ZM498 783 l73 0 l0 -321 q0 -62 -6 -133.5 q-6 -71.5 -22.5 -144.5 q-16.5 -73 -49.5 -140.5 q-33 -67.5 -87 -123.5 q-5 7 -15.5 16.5 q-10.5 9.5 -22 18.5 q-11.5 9 -19.5 13 q50 53 80 114.5 q30 61.5 45 127 q15 65.5 19.5 130 q4.5 64.5 4.5 122.5 l0 321 ZM759 783 l74 0 l0 -721 q0 -24 1.5 -38.5 q1.5 -14.5 5.5 -17.5 q8 -6 18 -6 q5 0 13.5 0 q8.5 0 15.5 0 q14 0 20 7 q4 5 6.5 12.5 q2.5 7.5 3.5 25.5 q2 17 3 55 q1 38 1 88 q12 -11 28 -19.5 q16 -8.5 30 -12.5 q0 -28 -1.5 -59.5 q-1.5 -31.5 -3 -57.5 q-1.5 -26 -3.5 -39 q-7 -41 -28 -56 q-11 -7 -24.5 -10.5 q-13.5 -3.5 -28.5 -3.5 q-11 0 -26 0 q-15 0 -25 0 q-14 0 -30 4.5 q-16 4.5 -27 14.5 q-9 8 -14 19 q-5 11 -7 34.5 q-2 23.5 -2 65.5 l0 715 ZM52 626 l387 0 l0 -72 l-387 0 l0 72 ZM218 840 l73 0 l0 -919 l-73 0 l0 919 ZM215 581 l49 -16 q-14 -61 -35 -126 q-21 -65 -47 -127 q-26 -62 -55 -115 q-29 -53 -60 -90 q-6 15 -18 34.5 q-12 19.5 -21 33.5 q28 34 56.5 80.5 q28.5 46.5 53 101.5 q24.5 55 44.5 112 q20 57 33 112 ZM284 471 q11 -10 33.5 -34 q22.5 -24 48.5 -53 q26 -29 47.5 -53.5 q21.5 -24.5 30.5 -34.5 l-47 -62 q-11 18 -30.5 45.5 q-19.5 27.5 -42.5 58 q-23 30.5 -44 56.5 q-21 26 -34 41 l38 36 Z" /><glyph glyph-name="" unicode="&#x6b21;" d="M454 840 l80 -15 q-19 -85 -45 -166 q-26 -81 -58 -151.5 q-32 -70.5 -70 -123.5 q-7 6 -21 14.5 q-14 8.5 -27.5 16 q-13.5 7.5 -23.5 11.5 q39 50 70 116 q31 66 55.5 142 q24.5 76 39.5 156 ZM444 670 l429 0 l0 -74 l-462 0 l33 74 ZM851 670 l11 0 l15 4 l55 -30 q-13 -49 -31 -99 q-18 -50 -37.5 -94.5 q-19.5 -44.5 -36.5 -79.5 q-8 5 -20 10.5 q-12 5.5 -23 11.5 q-11 6 -21 10 q16 31 33 74 q17 43 32 89 q15 46 23 85 l0 19 ZM57 717 l45 54 q34 -18 71.5 -41 q37.5 -23 70.5 -46.5 q33 -23.5 54 -44.5 l-48 -61 q-20 21 -52.5 46 q-32.5 25 -69 50 q-36.5 25 -71.5 43 ZM42 73 q29 37 65 87.5 q36 50.5 73.5 107 q37.5 56.5 69.5 111.5 l58 -50 q-30 -51 -63.5 -105 q-33.5 -54 -68 -106 q-34.5 -52 -65.5 -97 l-69 52 ZM639 448 q21 -109 61.5 -200 q40.5 -91 104.5 -156.5 q64 -65.5 156 -98.5 q-8 -7 -18 -19 q-10 -12 -18.5 -24.5 q-8.5 -12.5 -13.5 -22.5 q-97 41 -163 113.5 q-66 72.5 -107.5 173 q-41.5 100.5 -66.5 223.5 l65 11 ZM569 547 l80 0 l0 -63 q0 -49 -6 -106 q-6 -57 -25 -117.5 q-19 -60.5 -57.5 -121 q-38.5 -60.5 -102.5 -117.5 q-64 -57 -161 -106 q-5 9 -15.5 20 q-10.5 11 -21 21.5 q-10.5 10.5 -20.5 16.5 q92 45 152.5 97 q60.5 52 96 106.5 q35.5 54.5 53 109 q17.5 54.5 22.5 105 q5 50.5 5 93.5 l0 62 Z" /><glyph glyph-name="" unicode="&#x6d1e;&#xfa05;" d="M455 631 l344 0 l0 -63 l-344 0 l0 63 ZM326 798 l551 0 l0 -68 l-480 0 l0 -810 l-71 0 l0 878 ZM517 468 l248 0 l0 -315 l-248 0 l0 64 l185 0 l0 187 l-185 0 l0 64 ZM853 798 l73 0 l0 -783 q0 -34 -8.5 -53 q-8.5 -19 -30.5 -28 q-22 -10 -59 -12.5 q-37 -2.5 -97 -2.5 q-1 10 -5 24 q-4 14 -8.5 28 q-4.5 14 -10.5 23 q43 -1 78 -1 q35 0 47 0 q12 1 16.5 5.5 q4.5 4.5 4.5 17.5 l0 782 ZM486 468 l61 0 l0 -378 l-61 0 l0 378 ZM85 769 l43 55 q30 -13 64 -30.5 q34 -17.5 65 -36 q31 -18.5 51 -34.5 l-44 -61 q-20 16 -50.5 35.5 q-30.5 19.5 -64 38.5 q-33.5 19 -64.5 33 ZM36 501 l40 56 q32 -12 67 -29 q35 -17 67 -35 q32 -18 53 -33 l-43 -63 q-20 16 -51 34.5 q-31 18.5 -66 37 q-35 18.5 -67 32.5 ZM65 -10 q26 39 56.5 91.5 q30.5 52.5 62 111 q31.5 58.5 57.5 114.5 l58 -50 q-25 -52 -53 -108 q-28 -56 -57.5 -110 q-29.5 -54 -57.5 -100 l-66 51 Z" /><glyph glyph-name="" unicode="&#x6df1;" d="M322 357 l599 0 l0 -68 l-599 0 l0 68 ZM328 785 l591 0 l0 -177 l-70 0 l0 111 l-453 0 l0 -114 l-68 0 l0 180 ZM581 466 l75 0 l0 -541 l-75 0 l0 541 ZM686 325 q27 -59 69 -114.5 q42 -55.5 93 -101 q51 -45.5 104 -72.5 q-9 -7 -19 -17.5 q-10 -10.5 -19 -21.5 q-9 -11 -15 -21 q-54 34 -105.5 85.5 q-51.5 51.5 -94.5 114 q-43 62.5 -73 127.5 l60 21 ZM556 332 l59 -20 q-30 -72 -75.5 -136.5 q-45.5 -64.5 -102.5 -116 q-57 -51.5 -119 -84.5 q-9 14 -23.5 31 q-14.5 17 -26.5 27 q61 28 116.5 74 q55.5 46 100 104 q44.5 58 71.5 121 ZM507 653 l68 -21 q-24 -43 -57.5 -84 q-33.5 -41 -70.5 -76 q-37 -35 -75 -62 q-5 7 -15 17 q-10 10 -20.5 19.5 q-10.5 9.5 -18.5 15.5 q55 35 106 85.5 q51 50.5 83 105.5 ZM662 624 l54 37 q35 -30 72.5 -67 q37.5 -37 69.5 -73 q32 -36 51 -65 l-58 -42 q-18 29 -49 66 q-31 37 -67.5 75 q-36.5 38 -72.5 69 ZM84 772 l39 57 q28 -13 59 -30.5 q31 -17.5 60 -35 q29 -17.5 47 -32.5 l-40 -64 q-17 16 -45.5 34.5 q-28.5 18.5 -60 37.5 q-31.5 19 -59.5 33 ZM38 501 l38 55 q30 -12 64 -29.5 q34 -17.5 64.5 -36 q30.5 -18.5 50.5 -34.5 l-39 -62 q-19 16 -49.5 35 q-30.5 19 -64.5 38.5 q-34 19.5 -64 33.5 ZM61 -10 q23 39 51 91.5 q28 52.5 57.5 112 q29.5 59.5 53.5 115.5 l50 -51 q-23 -52 -49.5 -108.5 q-26.5 -56.5 -53.5 -111 q-27 -54.5 -53 -100.5 l-56 52 Z" /><glyph glyph-name="" unicode="&#x70b9;" d="M455 840 l75 0 l0 -341 l-75 0 l0 341 ZM237 465 l0 -179 l523 0 l0 179 l-523 0 ZM166 536 l669 0 l0 -320 l-669 0 l0 320 ZM490 734 l420 0 l0 -71 l-420 0 l0 71 ZM340 128 l71 6 q8 -31 13.5 -67.5 q5.5 -36.5 9 -70 q3.5 -33.5 3.5 -57.5 l-76 -10 q0 25 -2.5 59 q-2.5 34 -7.5 71 q-5 37 -11 69 ZM547 127 l68 15 q16 -30 30.5 -65.5 q14.5 -35.5 27 -68.5 q12.5 -33 17.5 -58 l-73 -19 q-5 25 -16 59 q-11 34 -25 70 q-14 36 -29 67 ZM751 135 l67 26 q26 -32 51.5 -68 q25.5 -36 47.5 -71.5 q22 -35.5 34 -63.5 l-71 -30 q-11 28 -32 64 q-21 36 -46.5 73.5 q-25.5 37.5 -50.5 69.5 ZM177 155 l71 -19 q-24 -58 -60.5 -117 q-36.5 -59 -77.5 -98 l-68 33 q40 34 76 89.5 q36 55.5 59 111.5 Z" /><glyph glyph-name="" unicode="&#x7269;" d="M534 840 l69 -13 q-19 -82 -47 -158.5 q-28 -76.5 -63 -142 q-35 -65.5 -78 -115.5 q-5 6 -16 14.5 q-11 8.5 -22 16.5 q-11 8 -20 12 q42 46 76 107 q34 61 59.5 132 q25.5 71 41.5 147 ZM879 672 l72 0 q0 0 -0.5 -7 q-0.5 -7 -0.5 -16.5 q0 -9.5 -1 -14.5 q-8 -171 -17 -289.5 q-9 -118.5 -18.5 -194.5 q-9.5 -76 -21.5 -118 q-12 -42 -27 -60 q-16 -21 -31.5 -29 q-15.5 -8 -38.5 -11 q-21 -2 -51 -2 q-30 0 -63 2 q-2 17 -7 38 q-5 21 -14 37 q34 -3 62 -4 q28 -1 42 -1 q13 0 21.5 3.5 q8.5 3.5 16.5 12.5 q12 14 23 54 q11 40 20.5 114 q9.5 74 17.5 189 q8 115 16 280 l0 17 ZM527 672 l382 0 l0 -70 l-414 0 l32 70 ZM629 650 l57 -28 q-21 -88 -58.5 -179.5 q-37.5 -91.5 -87 -169.5 q-49.5 -78 -106.5 -128 q-11 11 -27.5 23.5 q-16.5 12.5 -31.5 20.5 q44 35 83 86 q39 51 72 113.5 q33 62.5 58 129.5 q25 67 41 132 ZM771 645 l61 -28 q-19 -101 -49.5 -200.5 q-30.5 -99.5 -71.5 -190 q-41 -90.5 -93.5 -164.5 q-52.5 -74 -116.5 -125 q-11 11 -29 24 q-18 13 -34 21 q65 47 118.5 118.5 q53.5 71.5 95 159.5 q41.5 88 71.5 186.5 q30 98.5 48 198.5 ZM35 285 q48 12 108.5 29 q60.5 17 129 37.5 q68.5 20.5 135.5 41.5 l10 -66 q-94 -30 -190 -60.5 q-96 -30.5 -173 -53.5 l-20 72 ZM222 839 l70 0 l0 -919 l-70 0 l0 919 ZM98 782 l65 -10 q-7 -67 -18 -132.5 q-11 -65.5 -25.5 -123 q-14.5 -57.5 -33.5 -102.5 q-6 5 -16.5 11.5 q-10.5 6.5 -21.5 12.5 q-11 6 -19 10 q19 42 32 96.5 q13 54.5 22.5 115.5 q9.5 61 14.5 122 ZM105 635 l290 0 l0 -72 l-302 0 l12 72 Z" /><glyph glyph-name="" unicode="&#x77bb;" d="M439 670 l515 0 l0 -58 l-515 0 l0 58 ZM516 330 l384 0 l0 -47 l-384 0 l0 47 ZM514 235 l384 0 l0 -47 l-384 0 l0 47 ZM545 12 l325 0 l0 -47 l-325 0 l0 47 ZM470 426 l482 0 l0 -49 l-482 0 l0 49 ZM513 844 l71 -13 q-34 -71 -88 -145 q-54 -74 -132 -137 q-5 9 -13 18.5 q-8 9.5 -16.5 19 q-8.5 9.5 -15.5 14.5 q70 53 118.5 119 q48.5 66 75.5 124 ZM395 660 l66 0 l0 -249 q0 -53 -2.5 -116 q-2.5 -63 -10.5 -129 q-8 -66 -24 -128.5 q-16 -62.5 -42 -115.5 q-7 5 -18 10 q-11 5 -23 10 q-12 5 -21 7 q26 51 41 110.5 q15 59.5 22.5 121 q7.5 61.5 9.5 121 q2 59.5 2 109.5 l0 249 ZM511 139 l400 0 l0 -210 l-70 0 l0 162 l-262 0 l0 -167 l-68 0 l0 215 ZM523 789 l229 0 l0 -52 l-261 0 l32 52 ZM727 789 l15 0 l11 3 l47 -31 q-19 -37 -47 -76 q-28 -39 -53 -66 q-9 8 -23.5 17.5 q-14.5 9.5 -26.5 14.5 q22 24 43.5 60.5 q21.5 36.5 33.5 65.5 l0 12 ZM625 607 l48 -38 q-34 -32 -74.5 -61.5 q-40.5 -29.5 -75.5 -51.5 l-41 35 q23 14 49.5 34.5 q26.5 20.5 51 42 q24.5 21.5 42.5 39.5 ZM657 493 l53 22 q15 -25 29 -54 q14 -29 22 -50 l-57 -26 q-7 22 -20.5 52.5 q-13.5 30.5 -26.5 55.5 ZM741 564 l30 40 q46 -24 91 -52.5 q45 -28.5 75 -54.5 l-35 -42 q-28 25 -73 55 q-45 30 -88 54 ZM107 779 l220 0 l0 -693 l-220 0 l0 67 l158 0 l0 558 l-158 0 l0 68 ZM111 572 l192 0 l0 -65 l-192 0 l0 65 ZM111 365 l192 0 l0 -64 l-192 0 l0 64 ZM73 779 l64 0 l0 -780 l-64 0 l0 780 Z" /><glyph glyph-name="" unicode="&#x2f6f;&#x77f3;" d="M66 764 l870 0 l0 -73 l-870 0 l0 73 ZM277 62 l568 0 l0 -72 l-568 0 l0 72 ZM244 428 l632 0 l0 -506 l-80 0 l0 434 l-476 0 l0 -436 l-76 0 l0 508 ZM365 729 l80 -21 q-35 -103 -87.5 -206.5 q-52.5 -103.5 -122 -194.5 q-69.5 -91 -158.5 -158 q-6 8 -15 18.5 q-9 10.5 -19 21.5 q-10 11 -18 17 q84 63 150 148.5 q66 85.5 114 182.5 q48 97 76 192 Z" /><glyph glyph-name="" unicode="&#x7814;" d="M457 785 l483 0 l0 -71 l-483 0 l0 71 ZM429 426 l531 0 l0 -72 l-531 0 l0 72 ZM775 757 l72 0 l0 -837 l-72 0 l0 837 ZM541 754 l71 0 l0 -351 q0 -62 -5 -127.5 q-5 -65.5 -19.5 -129 q-14.5 -63.5 -43 -122.5 q-28.5 -59 -75.5 -108 q-6 6 -16.5 14.5 q-10.5 8.5 -21 16 q-10.5 7.5 -20.5 12.5 q44 45 69.5 99.5 q25.5 54.5 39 113.5 q13.5 59 17.5 118 q4 59 4 114 l0 350 ZM51 785 l352 0 l0 -69 l-352 0 l0 69 ZM151 479 l235 0 l0 -433 l-235 0 l0 67 l168 0 l0 298 l-168 0 l0 68 ZM182 753 l69 -15 q-17 -94 -43 -184 q-26 -90 -60.5 -168.5 q-34.5 -78.5 -81.5 -138.5 q-2 10 -8 25 q-6 15 -13 31 q-7 16 -13 25 q58 77 94 188.5 q36 111.5 56 236.5 ZM119 479 l64 0 l0 -513 l-64 0 l0 513 Z" /><glyph glyph-name="" unicode="&#x78c5;" d="M413 746 l507 0 l0 -62 l-507 0 l0 62 ZM414 361 l507 0 l0 -63 l-507 0 l0 63 ZM507 667 l64 12 q12 -28 23 -61.5 q11 -33.5 15 -55.5 l-67 -16 q-4 23 -14 57.5 q-10 34.5 -21 63.5 ZM784 683 l72 -14 q-15 -39 -32.5 -78.5 q-17.5 -39.5 -32.5 -68.5 l-62 13 q10 21 20.5 47 q10.5 26 19.5 52.5 q9 26.5 15 48.5 ZM402 555 l542 0 l0 -160 l-69 0 l0 99 l-406 0 l0 -99 l-67 0 l0 160 ZM569 203 l271 0 l0 -63 l-271 0 l0 63 ZM817 203 l71 0 q0 0 -0.5 -11 q-0.5 -11 -1.5 -19 q-5 -71 -12 -116 q-7 -45 -15.5 -71 q-8.5 -26 -20.5 -38 q-12 -12 -25.5 -17.5 q-13.5 -5.5 -33.5 -5.5 q-17 -2 -48 -2 q-31 0 -66 2 q-1 15 -6 33 q-5 18 -13 31 q33 -3 61.5 -4 q28.5 -1 40.5 -1 q12 0 19.5 1.5 q7.5 1.5 12.5 7.5 q8 8 14.5 29.5 q6.5 21.5 12 63 q5.5 41.5 10.5 107.5 l0 10 ZM561 339 l70 0 q-4 -76 -15.5 -140.5 q-11.5 -64.5 -35.5 -116.5 q-24 -52 -66 -92.5 q-42 -40.5 -109 -68.5 q-6 13 -18.5 29.5 q-12.5 16.5 -23.5 25.5 q60 24 98 58.5 q38 34.5 58 80 q20 45.5 29.5 101.5 q9.5 56 12.5 123 ZM620 839 l69 9 q11 -30 20.5 -66 q9.5 -36 12.5 -61 l-72 -13 q-3 25 -11 62 q-8 37 -19 69 ZM619 452 l70 11 q11 -27 20.5 -59 q9.5 -32 12.5 -54 l-73 -14 q-3 23 -11.5 55.5 q-8.5 32.5 -18.5 60.5 ZM46 787 l330 0 l0 -69 l-330 0 l0 69 ZM147 479 l210 0 l0 -433 l-210 0 l0 67 l149 0 l0 298 l-149 0 l0 68 ZM176 753 l66 -15 q-16 -94 -41.5 -184 q-25.5 -90 -60 -168 q-34.5 -78 -79.5 -138 q-2 9 -7.5 24 q-5.5 15 -12 31 q-6.5 16 -12.5 25 q56 77 92 188.5 q36 111.5 55 236.5 ZM115 479 l61 0 l0 -513 l-61 0 l0 513 Z" /><glyph glyph-name="" unicode="&#x79d1;" d="M212 757 l74 0 l0 -835 l-74 0 l0 835 ZM43 558 l391 0 l0 -70 l-391 0 l0 70 ZM216 531 l47 -20 q-15 -53 -37 -109.5 q-22 -56.5 -47.5 -112 q-25.5 -55.5 -54 -104 q-28.5 -48.5 -57.5 -82.5 q-6 15 -17.5 35 q-11.5 20 -21.5 34 q28 30 55 72 q27 42 52.5 91 q25.5 49 46.5 99.5 q21 50.5 34 96.5 ZM372 826 l46 -60 q-46 -18 -104 -33 q-58 -15 -120 -26.5 q-62 -11.5 -120 -19.5 q-2 12 -8.5 29 q-6.5 17 -12.5 29 q56 10 115.5 22 q59.5 12 113 27.5 q53.5 15.5 90.5 31.5 ZM281 475 q10 -11 30.5 -35.5 q20.5 -24.5 43.5 -53 q23 -28.5 42.5 -54 q19.5 -25.5 27.5 -36.5 l-46 -58 q-9 18 -26.5 46.5 q-17.5 28.5 -38 59.5 q-20.5 31 -39 58 q-18.5 27 -29.5 41 l35 32 ZM762 841 l74 0 l0 -919 l-74 0 l0 919 ZM422 190 l532 85 l11 -69 l-532 -88 l-11 72 ZM503 727 l48 44 q30 -19 61.5 -43 q31.5 -24 58.5 -49 q27 -25 44 -46 l-52 -48 q-15 20 -41.5 45.5 q-26.5 25.5 -57.5 51 q-31 25.5 -61 45.5 ZM463 466 l47 44 q32 -19 67 -44 q35 -25 65 -50.5 q30 -25.5 48 -47.5 l-50 -49 q-18 22 -47.5 48.5 q-29.5 26.5 -63.5 52.5 q-34 26 -66 46 Z" /><glyph glyph-name="" unicode="&#x7a0b;" d="M644 369 l74 0 l0 -401 l-74 0 l0 401 ZM425 396 l516 0 l0 -66 l-516 0 l0 66 ZM381 13 l582 0 l0 -66 l-582 0 l0 66 ZM448 209 l471 0 l0 -65 l-471 0 l0 65 ZM532 733 l0 -184 l302 0 l0 184 l-302 0 ZM462 798 l445 0 l0 -314 l-445 0 l0 314 ZM212 757 l74 0 l0 -835 l-74 0 l0 835 ZM49 558 l362 0 l0 -70 l-362 0 l0 70 ZM216 531 l47 -20 q-15 -53 -37 -109.5 q-22 -56.5 -47.5 -112 q-25.5 -55.5 -54 -104 q-28.5 -48.5 -57.5 -82.5 q-6 15 -17.5 35 q-11.5 20 -21.5 34 q28 30 55 72 q27 42 52.5 91 q25.5 49 46.5 99.5 q21 50.5 34 96.5 ZM361 826 l52 -58 q-46 -18 -105 -34 q-59 -16 -121.5 -27.5 q-62.5 -11.5 -121.5 -19.5 q-2 12 -9 28.5 q-7 16.5 -13 28.5 q56 10 115.5 22 q59.5 12 112.5 27.5 q53 15.5 90 32.5 ZM282 430 q10 -9 29.5 -28.5 q19.5 -19.5 42.5 -42 q23 -22.5 41.5 -42.5 q18.5 -20 26.5 -29 l-45 -59 q-9 15 -25.5 38 q-16.5 23 -36.5 49 q-20 26 -38 48 q-18 22 -30 35 l35 31 Z" /><glyph glyph-name="" unicode="&#x7a76;" d="M117 358 l590 0 l0 -70 l-590 0 l0 70 ZM662 358 l76 0 l0 -316 q0 -21 6 -27 q6 -6 27 -6 q4 0 15.5 0 q11.5 0 26 0 q14.5 0 27 0 q12.5 0 18.5 0 q14 0 21 10.5 q7 10.5 10 42 q3 31.5 4 96.5 q8 -6 20.5 -12 q12.5 -6 25.5 -11 q13 -5 23 -8 q-3 -75 -12.5 -116.5 q-9.5 -41.5 -29.5 -57.5 q-20 -16 -55 -16 q-7 0 -21.5 0 q-14.5 0 -32 0 q-17.5 0 -32 0 q-14.5 0 -20.5 0 q-37 0 -58.5 9 q-21.5 9 -30 31.5 q-8.5 22.5 -8.5 63.5 l0 317 ZM387 451 l76 0 l0 -129 q0 -52 -12 -107 q-12 -55 -48 -108.5 q-36 -53.5 -107 -101 q-71 -47.5 -189 -84.5 q-8 14 -23 31.5 q-15 17.5 -28 29.5 q110 34 176.5 76 q66.5 42 99.5 88 q33 46 44 91.5 q11 45.5 11 86.5 l0 127 ZM77 732 l847 0 l0 -164 l-78 0 l0 97 l-694 0 l0 -102 l-75 0 l0 169 ZM384 629 l61 -34 q-42 -34 -92 -66.5 q-50 -32.5 -102 -59 q-52 -26.5 -100 -46.5 l-50 54 q46 17 96.5 40 q50.5 23 98.5 52.5 q48 29.5 88 59.5 ZM567 588 l50 41 q49 -21 103.5 -49.5 q54.5 -28.5 104.5 -57.5 q50 -29 83 -53 l-53 -47 q-31 25 -79.5 55 q-48.5 30 -103.5 59.5 q-55 29.5 -105 51.5 ZM420 828 l78 19 q19 -30 37.5 -66.5 q18.5 -36.5 27.5 -61.5 l-82 -24 q-8 26 -25.5 64 q-17.5 38 -35.5 69 Z" /><glyph glyph-name="" unicode="&#x7b80;" d="M189 752 l304 0 l0 -63 l-304 0 l0 63 ZM567 751 l363 0 l0 -63 l-363 0 l0 63 ZM207 843 l71 -18 q-19 -53 -45 -102 q-26 -49 -57.5 -91.5 q-31.5 -42.5 -64.5 -75.5 q-7 7 -18.5 14.5 q-11.5 7.5 -23 15 q-11.5 7.5 -20.5 12.5 q50 44 91.5 109 q41.5 65 66.5 136 ZM596 841 l72 -16 q-22 -73 -59 -138.5 q-37 -65.5 -79 -110.5 q-6 6 -17 14 q-11 8 -23 16 q-12 8 -22 12 q43 41 76.5 99.5 q33.5 58.5 51.5 123.5 ZM264 705 l62 23 q21 -31 41.5 -69.5 q20.5 -38.5 29.5 -65.5 l-67 -27 q-8 28 -27 67.5 q-19 39.5 -39 71.5 ZM674 706 l62 26 q25 -33 50 -73 q25 -40 37 -69 l-65 -29 q-10 29 -34.5 70.5 q-24.5 41.5 -49.5 74.5 ZM351 245 l303 0 l0 -56 l-303 0 l0 56 ZM107 454 l73 0 l0 -532 l-73 0 l0 532 ZM350 538 l510 0 l0 -68 l-510 0 l0 68 ZM152 539 l55 38 q32 -27 65 -61.5 q33 -34.5 50 -61.5 l-58 -41 q-16 26 -48.5 62 q-32.5 36 -63.5 64 ZM820 538 l74 0 l0 -528 q0 -31 -8 -47.5 q-8 -16.5 -31 -25.5 q-23 -8 -61 -9.5 q-38 -1.5 -94 -1.5 q-2 15 -9 33.5 q-7 18.5 -15 32.5 q28 0 53.5 -1 q25.5 -1 44.5 -0.5 q19 0.5 26 0.5 q12 1 16 5 q4 4 4 15 l0 527 ZM385 329 l0 -230 l235 0 l0 230 l-235 0 ZM320 387 l368 0 l0 -346 l-368 0 l0 346 Z" /><glyph glyph-name="" unicode="&#x7ea7;" d="M513 749 l76 -3 q-8 -181 -26.5 -334.5 q-18.5 -153.5 -57.5 -276.5 q-39 -123 -110 -217 q-6 6 -18.5 15 q-12.5 9 -25.5 17.5 q-13 8.5 -22 13.5 q71 84 109 202 q38 118 54 265.5 q16 147.5 21 317.5 ZM400 775 l394 0 l0 -70 l-394 0 l0 70 ZM729 502 l143 0 l0 -66 l-165 0 l22 66 ZM851 502 l14 0 l14 3 l47 -19 q-31 -145 -90.5 -255.5 q-59.5 -110.5 -139 -187.5 q-79.5 -77 -173.5 -125 q-5 9 -15 20 q-10 11 -20 21.5 q-10 10.5 -18 16.5 q92 42 168.5 112 q76.5 70 131.5 169.5 q55 99.5 81 229.5 l0 15 ZM568 514 q35 -116 91.5 -220.5 q56.5 -104.5 134 -185.5 q77.5 -81 172.5 -126 q-8 -6 -18 -17 q-10 -11 -18.5 -22.5 q-8.5 -11.5 -14.5 -20.5 q-98 51 -177 137.5 q-79 86.5 -137 198.5 q-58 112 -96 238 l63 18 ZM763 775 l77 0 q-15 -55 -32 -117.5 q-17 -62.5 -34 -120.5 q-17 -58 -32 -101 l-75 0 q16 44 33.5 103 q17.5 59 34 121 q16.5 62 28.5 115 ZM61 177 q-1 8 -5.5 20.5 q-4.5 12.5 -9 26 q-4.5 13.5 -8.5 22.5 q17 3 35.5 21 q18.5 18 41.5 46 q13 14 38 45.5 q25 31.5 56 75.5 q31 44 62.5 94.5 q31.5 50.5 58.5 102.5 l63 -38 q-62 -104 -134.5 -203 q-72.5 -99 -146.5 -173 l0 -2 q0 0 -7.5 -3.5 q-7.5 -3.5 -18 -9.5 q-10.5 -6 -18 -12.5 q-7.5 -6.5 -7.5 -12.5 ZM61 177 l-5 64 l35 28 l288 80 q0 -14 1.5 -32.5 q1.5 -18.5 3.5 -30.5 q-100 -30 -160.5 -48.5 q-60.5 -18.5 -92.5 -29.5 q-32 -11 -47 -17.5 q-15 -6.5 -23 -13.5 ZM55 423 q-1 8 -5.5 20.5 q-4.5 12.5 -9.5 26.5 q-5 14 -9 23 q14 4 28 20.5 q14 16.5 31 41.5 q9 13 26 42 q17 29 37.5 68.5 q20.5 39.5 41.5 85 q21 45.5 37 90.5 l69 -32 q-27 -63 -59.5 -125 q-32.5 -62 -68.5 -118.5 q-36 -56.5 -72 -102.5 l0 -1 q0 0 -7 -4 q-7 -4 -16 -10.5 q-9 -6.5 -16 -12.5 q-7 -6 -7 -12 ZM55 423 l-1 56 l36 23 l187 19 q-2 -14 -4 -32 q-2 -18 -2 -29 q-64 -9 -103.5 -15 q-39.5 -6 -62 -9.5 q-22.5 -3.5 -33 -6.5 q-10.5 -3 -17.5 -6 ZM42 56 q43 14 98.5 34 q55.5 20 118 42.5 q62.5 22.5 124.5 45.5 l15 -65 q-89 -35 -178 -69.5 q-89 -34.5 -160 -61.5 l-18 74 Z" /><glyph glyph-name="" unicode="&#x2f79;&#x7f51;" d="M403 640 l69 -8 q-31 -187 -88.5 -336.5 q-57.5 -149.5 -153.5 -249.5 q-5 6 -16 13.5 q-11 7.5 -22.5 15.5 q-11.5 8 -19.5 13 q63 60 108.5 145 q45.5 85 75 188 q29.5 103 47.5 219 ZM687 638 l68 -8 q-29 -191 -87 -341.5 q-58 -150.5 -157 -250.5 q-6 6 -17 14 q-11 8 -22 16 q-11 8 -20 12 q66 61 112.5 145.5 q46.5 84.5 76.5 189 q30 104.5 46 223.5 ZM194 536 l46 42 q37 -44 75.5 -93.5 q38.5 -49.5 74.5 -99.5 q36 -50 66 -96 q30 -46 50 -83 l-49 -49 q-20 38 -50 85 q-30 47 -65.5 98.5 q-35.5 51.5 -73.5 101.5 q-38 50 -74 94 ZM483 535 l49 39 q39 -47 78.5 -99.5 q39.5 -52.5 75.5 -107 q36 -54.5 65.5 -104.5 q29.5 -50 47.5 -92 l-52 -44 q-19 42 -48 93.5 q-29 51.5 -64.5 106 q-35.5 54.5 -74 108.5 q-38.5 54 -77.5 100 ZM88 780 l798 0 l0 -72 l-722 0 l0 -786 l-76 0 l0 858 ZM840 780 l75 0 l0 -760 q0 -36 -10.5 -55 q-10.5 -19 -35.5 -29 q-24 -9 -66.5 -11.5 q-42.5 -2.5 -110.5 -1.5 q-2 10 -7 23.5 q-5 13.5 -10.5 27 q-5.5 13.5 -11.5 23.5 q33 -1 64 -1.5 q31 -0.5 54.5 0 q23.5 0.5 32.5 0.5 q14 1 20 6 q6 5 6 18 l0 760 Z" /><glyph glyph-name="" unicode="&#x8054;" d="M453 632 l465 0 l0 -69 l-465 0 l0 69 ZM428 381 l528 0 l0 -70 l-528 0 l0 70 ZM636 580 l75 0 l0 -139 q0 -56 -7.5 -122.5 q-7.5 -66.5 -33 -136.5 q-25.5 -70 -78.5 -139.5 q-53 -69.5 -143 -130.5 q-9 12 -25.5 27.5 q-16.5 15.5 -31.5 25.5 q87 55 136.5 118 q49.5 63 72.5 127 q23 64 29 123.5 q6 59.5 6 108.5 l0 138 ZM704 322 q32 -116 98.5 -206 q66.5 -90 163.5 -133 q-8 -7 -17.5 -18 q-9.5 -11 -18 -22.5 q-8.5 -11.5 -14.5 -21.5 q-102 53 -171 153.5 q-69 100.5 -105 231.5 l64 16 ZM810 824 l77 -23 q-29 -51 -62.5 -104.5 q-33.5 -53.5 -63.5 -91.5 l-62 21 q19 27 40 61.5 q21 34.5 40 70.5 q19 36 31 66 ZM485 794 l61 30 q31 -34 60 -76.5 q29 -42.5 42 -75.5 l-64 -34 q-14 32 -41.5 76.5 q-27.5 44.5 -57.5 79.5 ZM47 797 l376 0 l0 -68 l-376 0 l0 68 ZM143 587 l194 0 l0 -63 l-194 0 l0 63 ZM143 381 l194 0 l0 -64 l-194 0 l0 64 ZM101 763 l68 0 l0 -640 l-68 0 l0 640 ZM313 763 l66 0 l0 -843 l-66 0 l0 843 ZM38 135 q52 7 120.5 17.5 q68.5 10.5 145.5 22.5 q77 12 154 24 l4 -65 q-109 -18 -217.5 -37 q-108.5 -19 -191.5 -34 l-15 72 Z" /><glyph glyph-name="" unicode="&#x80fd;" d="M100 484 l317 0 l0 -64 l-247 0 l0 -499 l-70 0 l0 563 ZM383 484 l74 0 l0 -477 q0 -29 -7 -45.5 q-7 -16.5 -28 -26.5 q-21 -8 -54 -10 q-33 -2 -80 -2 q-3 15 -10 35 q-7 20 -15 34 q35 -1 64 -1.5 q29 -0.5 40 0.5 q10 0 13 3.5 q3 3.5 3 13.5 l0 476 ZM134 334 l288 0 l0 -59 l-288 0 l0 59 ZM134 184 l288 0 l0 -59 l-288 0 l0 59 ZM551 838 l74 0 l0 -331 q0 -24 9.5 -31 q9.5 -7 43.5 -7 q8 0 29.5 0 q21.5 0 47.5 0 q26 0 49 0 q23 0 33 0 q20 0 30 8.5 q10 8.5 14.5 33 q4.5 24.5 6.5 74.5 q11 -9 31 -17 q20 -8 35 -12 q-3 -61 -14 -94.5 q-11 -33.5 -33.5 -47 q-22.5 -13.5 -62.5 -13.5 q-6 0 -23.5 0 q-17.5 0 -40.5 0 q-23 0 -45.5 0 q-22.5 0 -39.5 0 q-17 0 -23 0 q-48 0 -74 9.5 q-26 9.5 -36.5 32.5 q-10.5 23 -10.5 63 l0 332 ZM858 765 l50 -56 q-43 -19 -95 -38.5 q-52 -19.5 -107 -36.5 q-55 -17 -107 -32 q-2 11 -8.5 26.5 q-6.5 15.5 -13.5 26.5 q49 15 101 34 q52 19 99 38.5 q47 19.5 81 37.5 ZM551 373 l74 0 l0 -339 q0 -24 10.5 -31 q10.5 -7 45.5 -7 q8 0 30 0 q22 0 48.5 0 q26.5 0 49.5 0 q23 0 34 0 q21 0 31.5 9 q10.5 9 15 37.5 q4.5 28.5 6.5 85.5 q13 -9 32.5 -17 q19.5 -8 34.5 -12 q-4 -67 -15 -104 q-11 -37 -34 -51.5 q-23 -14.5 -65 -14.5 q-7 0 -24.5 0 q-17.5 0 -40.5 0 q-23 0 -46 0 q-23 0 -40.5 0 q-17.5 0 -23.5 0 q-48 0 -75 9 q-27 9 -37.5 32 q-10.5 23 -10.5 65 l0 338 ZM870 319 l49 -56 q-41 -24 -95 -45.5 q-54 -21.5 -112 -40 q-58 -18.5 -112 -33.5 q-3 11 -10 27 q-7 16 -13 27 q52 15 106.5 35 q54.5 20 103.5 42 q49 22 83 44 ZM312 756 l61 24 q27 -33 52.5 -72 q25.5 -39 46 -77 q20.5 -38 30.5 -68 l-65 -30 q-11 31 -30.5 69.5 q-19.5 38.5 -44.5 78.5 q-25 40 -50 75 ZM84 553 q-2 8 -6.5 21.5 q-4.5 13.5 -9.5 27 q-5 13.5 -10 23.5 q12 3 23 13 q11 10 24 26 q9 11 27.5 38.5 q18.5 27.5 39.5 64 q21 36.5 37 75.5 l78 -24 q-22 -41 -48 -82 q-26 -41 -53 -77.5 q-27 -36.5 -54 -64.5 l0 -1 q0 0 -7.5 -4 q-7.5 -4 -17 -10 q-9.5 -6 -16.5 -13 q-7 -7 -7 -13 ZM84 553 l-2 52 l39 23 l325 19 q-3 -13 -4.5 -30.5 q-1.5 -17.5 -1.5 -28.5 q-89 -6 -149.5 -10.5 q-60.5 -4.5 -98.5 -8.5 q-38 -4 -59 -6.5 q-21 -2.5 -32 -4.5 q-11 -2 -17 -5 Z" /><glyph glyph-name="" unicode="&#x8bae;" d="M442 766 q33 -192 96.5 -348.5 q63.5 -156.5 170 -267 q106.5 -110.5 267.5 -168.5 q-9 -7 -19.5 -19 q-10.5 -12 -19.5 -24 q-9 -12 -15 -22 q-124 48 -216 126.5 q-92 78.5 -156.5 185 q-64.5 106.5 -107.5 238.5 q-43 132 -71 287 l71 12 ZM542 793 l63 27 q21 -33 41.5 -70.5 q20.5 -37.5 37 -73 q16.5 -35.5 24.5 -63.5 l-68 -31 q-8 28 -23.5 64.5 q-15.5 36.5 -35 75 q-19.5 38.5 -39.5 71.5 ZM832 778 l77 -12 q-25 -142 -63.5 -270 q-38.5 -128 -100.5 -237 q-62 -109 -157 -196.5 q-95 -87.5 -232 -149.5 q-5 10 -13 21 q-8 11 -16.5 22 q-8.5 11 -15.5 19 q132 56 222 138.5 q90 82.5 149 186 q59 103.5 94 224 q35 120.5 56 254.5 ZM113 771 l54 41 q23 -23 47.5 -50 q24.5 -27 46.5 -52.5 q22 -25.5 34 -46.5 l-57 -47 q-13 21 -33.5 48.5 q-20.5 27.5 -44.5 55 q-24 27.5 -47 51.5 ZM187 -54 l-13 70 l22 32 l184 127 q4 -15 11.5 -33.5 q7.5 -18.5 13.5 -30.5 q-66 -47 -106.5 -76 q-40.5 -29 -62.5 -45.5 q-22 -16.5 -32 -26 q-10 -9.5 -17 -17.5 ZM46 527 l203 0 l0 -73 l-203 0 l0 73 ZM187 -54 q-4 8 -11.5 18.5 q-7.5 10.5 -16 20 q-8.5 9.5 -15.5 14.5 q12 12 27.5 37.5 q15.5 25.5 15.5 64.5 l0 426 l73 0 l0 -480 q0 0 -7 -8 q-7 -8 -18 -19.5 q-11 -11.5 -22 -25 q-11 -13.5 -18.5 -26.5 q-7.5 -13 -7.5 -22 Z" /><glyph glyph-name="" unicode="&#x8d5e;" d="M143 833 l62 -9 q-12 -42 -29.5 -84 q-17.5 -42 -45.5 -79 q-11 9 -27 17.5 q-16 8.5 -29 13.5 q26 32 43 70 q17 38 26 71 ZM155 772 l303 0 l0 -53 l-335 0 l32 53 ZM258 841 l69 0 l0 -213 l-69 0 l0 213 ZM57 652 l426 0 l0 -54 l-426 0 l0 54 ZM179 618 l65 0 q-6 -54 -23 -95 q-17 -41 -51 -70 q-34 -29 -93 -50 q-5 11 -16.5 25.5 q-11.5 14.5 -21.5 21.5 q51 16 79 38.5 q28 22.5 42 54.5 q14 32 19 75 ZM579 833 l61 -9 q-14 -42 -33 -84.5 q-19 -42.5 -50 -80.5 q-10 9 -25.5 17.5 q-15.5 8.5 -28.5 12.5 q29 34 47.5 72 q18.5 38 28.5 72 ZM593 770 l312 0 l0 -54 l-344 0 l32 54 ZM691 840 l71 0 l0 -209 l-71 0 l0 209 ZM508 652 l433 0 l0 -54 l-433 0 l0 54 ZM622 618 l62 0 q-5 -51 -20 -88.5 q-15 -37.5 -46 -64.5 q-31 -27 -85 -46 q-5 11 -16 25.5 q-11 14.5 -21 22.5 q69 20 94.5 55.5 q25.5 35.5 31.5 95.5 ZM739 620 l63 0 l0 -111 q0 -12 3.5 -15.5 q3.5 -3.5 18.5 -3.5 q4 0 16 0 q12 0 24.5 0 q12.5 0 17.5 0 q14 0 18 9 q4 9 5 47 q9 -6 25 -12 q16 -6 29 -9 q-4 -53 -18.5 -71 q-14.5 -18 -48.5 -18 q-5 0 -15.5 0 q-10.5 0 -23 0 q-12.5 0 -23.5 0 q-11 0 -15 0 q-30 0 -46.5 6 q-16.5 6 -23 22 q-6.5 16 -6.5 45 l0 111 ZM300 426 l-2 48 l29 22 l171 40 q-1 -12 -1.5 -27 q-0.5 -15 0.5 -25 q-59 -15 -95.5 -24.5 q-36.5 -9.5 -56.5 -15.5 q-20 -6 -29.5 -10 q-9.5 -4 -15.5 -8 ZM300 426 q-2 11 -10 26 q-8 15 -15 23 q11 6 24.5 20 q13.5 14 13.5 45 l0 76 l63 -1 l0 -126 q0 0 -11.5 -6 q-11.5 -6 -26.5 -16 q-15 -10 -26.5 -21 q-11.5 -11 -11.5 -20 ZM521 65 l38 57 q43 -13 91.5 -30 q48.5 -17 96 -35.5 q47.5 -18.5 89.5 -37.5 q42 -19 73 -36 l-41 -65 q-29 18 -70 37 q-41 19 -88.5 39 q-47.5 20 -96.5 38.5 q-49 18.5 -92 32.5 ZM192 401 l622 0 l0 -313 l-78 0 l0 248 l-470 0 l0 -252 l-74 0 l0 317 ZM460 281 l75 0 l0 -75 q0 -46 -18 -88 q-18 -42 -61.5 -79 q-43.5 -37 -120.5 -67 q-77 -30 -195 -52 q-3 10 -11 21.5 q-8 11.5 -16.5 23.5 q-8.5 12 -16.5 19 q114 20 185.5 44.5 q71.5 24.5 110.5 53.5 q39 29 53.5 61 q14.5 32 14.5 66 l0 72 Z" /><glyph glyph-name="" unicode="&#x9053;" d="M311 708 l636 0 l0 -63 l-636 0 l0 63 ZM584 681 l86 -7 q-14 -38 -30.5 -76.5 q-16.5 -38.5 -30.5 -66.5 l-62 10 q10 31 21 70.5 q11 39.5 16 69.5 ZM759 840 l74 -22 q-24 -37 -49.5 -75.5 q-25.5 -38.5 -47.5 -65.5 l-60 20 q15 20 30.5 45 q15.5 25 30 51 q14.5 26 22.5 47 ZM414 817 l62 27 q22 -25 43 -56.5 q21 -31.5 30 -55.5 l-65 -30 q-9 24 -29 56.5 q-20 32.5 -41 58.5 ZM262 483 l0 -396 l-72 0 l0 326 l-139 0 l0 70 l211 0 ZM64 765 l58 36 q27 -24 55 -53 q28 -29 52.5 -58 q24.5 -29 39.5 -52 l-62 -42 q-13 24 -37 53 q-24 29 -51.5 59.5 q-27.5 30.5 -54.5 56.5 ZM228 110 q25 0 48 -17.5 q23 -17.5 64 -40.5 q48 -26 113 -34 q65 -8 146 -8 q59 0 124.5 2 q65.5 2 128 6 q62.5 4 110.5 9 q-4 -9 -8.5 -22.5 q-4.5 -13.5 -8 -27 q-3.5 -13.5 -4.5 -23.5 q-27 -2 -70 -3.5 q-43 -1.5 -93 -3.5 q-50 -2 -97.5 -3 q-47.5 -1 -83.5 -1 q-89 0 -155 10.5 q-66 10.5 -118 39.5 q-32 18 -55.5 36 q-23.5 18 -41.5 18 q-18 0 -40 -16 q-22 -16 -47.5 -42 q-25.5 -26 -50.5 -57 l-47 61 q50 50 98.5 83.5 q48.5 33.5 87.5 33.5 ZM455 368 l0 -84 l335 0 l0 84 l-335 0 ZM455 231 l0 -84 l335 0 l0 84 l-335 0 ZM455 504 l0 -83 l335 0 l0 83 l-335 0 ZM384 561 l479 0 l0 -472 l-479 0 l0 472 Z" /><glyph glyph-name="" unicode="&#x9152;" d="M291 785 l664 0 l0 -69 l-664 0 l0 69 ZM364 215 l514 0 l0 -65 l-514 0 l0 65 ZM364 35 l514 0 l0 -66 l-514 0 l0 66 ZM327 581 l591 0 l0 -657 l-72 0 l0 590 l-450 0 l0 -593 l-69 0 l0 660 ZM71 769 l42 54 q27 -15 57.5 -33 q30.5 -18 59 -35 q28.5 -17 47.5 -31 l-45 -61 q-18 15 -45.5 33.5 q-27.5 18.5 -58.5 37.5 q-31 19 -57 35 ZM34 500 l42 55 q28 -13 59.5 -30 q31.5 -17 61.5 -33.5 q30 -16.5 49 -29.5 l-42 -62 q-19 13 -48.5 30.5 q-29.5 17.5 -61 36 q-31.5 18.5 -60.5 33.5 ZM53 -21 q24 40 52.5 94 q28.5 54 58.5 114.5 q30 60.5 54 117.5 l59 -43 q-22 -53 -49 -111 q-27 -58 -55 -113.5 q-28 -55.5 -53 -102.5 l-67 44 ZM498 749 l67 0 l0 -210 l-67 0 l0 210 ZM661 750 l68 0 l0 -213 l-68 0 l0 213 ZM507 544 l60 0 l0 -65 q0 -35 -11 -73.5 q-11 -38.5 -40.5 -74.5 q-29.5 -36 -84.5 -65 q-4 6 -12.5 14 q-8.5 8 -17 16 q-8.5 8 -14.5 12 q49 26 75 55 q26 29 35.5 59 q9.5 30 9.5 58 l0 64 ZM659 542 l60 0 l0 -150 q0 -13 4.5 -16.5 q4.5 -3.5 22.5 -3.5 q4 0 14.5 0 q10.5 0 24 0 q13.5 0 25.5 0 q12 0 17 0 q11 0 15 1 q4 1 6 3 q8 -7 24.5 -13.5 q16.5 -6.5 30.5 -9.5 q-6 -23 -21.5 -32.5 q-15.5 -9.5 -45.5 -9.5 q-5 0 -18.5 0 q-13.5 0 -30 0 q-16.5 0 -30 0 q-13.5 0 -18.5 0 q-32 0 -49.5 6.5 q-17.5 6.5 -24 24 q-6.5 17.5 -6.5 49.5 l0 151 Z" /><glyph glyph-name="" unicode="&#x91cd;" d="M52 13 l897 0 l0 -61 l-897 0 l0 61 ZM58 663 l886 0 l0 -62 l-886 0 l0 62 ZM127 160 l759 0 l0 -60 l-759 0 l0 60 ZM459 764 l75 0 l0 -780 l-75 0 l0 780 ZM807 834 l40 -58 q-67 -12 -151.5 -21.5 q-84.5 -9.5 -177.5 -16 q-93 -6.5 -187 -11 q-94 -4.5 -182 -5.5 q0 13 -5.5 30.5 q-5.5 17.5 -10.5 28.5 q87 3 180.5 7.5 q93.5 4.5 184 11 q90.5 6.5 170 15.5 q79.5 9 139.5 19 ZM232 360 l0 -76 l540 0 l0 76 l-540 0 ZM232 486 l0 -75 l540 0 l0 75 l-540 0 ZM159 540 l689 0 l0 -311 l-689 0 l0 311 Z" /><glyph glyph-name="" unicode="&#x2fa6;&#x91d1;" d="M241 541 l517 0 l0 -71 l-517 0 l0 71 ZM113 334 l775 0 l0 -69 l-775 0 l0 69 ZM68 18 l866 0 l0 -69 l-866 0 l0 69 ZM458 509 l79 0 l0 -525 l-79 0 l0 525 ZM198 218 l62 24 q19 -27 38 -60 q19 -33 34.5 -64 q15.5 -31 23.5 -56 l-65 -28 q-7 24 -22 56 q-15 32 -33.5 66 q-18.5 34 -37.5 62 ZM733 243 l71 -28 q-28 -47 -60 -97.5 q-32 -50.5 -59 -84.5 l-57 24 q18 25 37 57.5 q19 32.5 37 66.5 q18 34 31 62 ZM529 798 q36 -42 87 -83.5 q51 -41.5 110.5 -78 q59.5 -36.5 122.5 -66 q63 -29.5 123 -48.5 q-9 -8 -19 -19.5 q-10 -11.5 -19 -23.5 q-9 -12 -15 -22 q-60 22 -122.5 55 q-62.5 33 -123 74 q-60.5 41 -113.5 87 q-53 46 -93 94 l62 31 ZM499 849 l70 -31 q-54 -82 -130.5 -151.5 q-76.5 -69.5 -167.5 -123.5 q-91 -54 -189 -90 q-9 17 -23 36.5 q-14 19.5 -29 32.5 q95 31 184 79 q89 48 163.5 111 q74.5 63 121.5 137 Z" /><glyph glyph-name="" unicode="&#x94bb;" d="M631 840 l75 0 l0 -512 l-75 0 l0 512 ZM674 637 l286 0 l0 -71 l-286 0 l0 71 ZM502 38 l380 0 l0 -70 l-380 0 l0 70 ZM465 360 l456 0 l0 -436 l-75 0 l0 366 l-309 0 l0 -370 l-72 0 l0 440 ZM180 837 l68 -19 q-19 -55 -46 -108.5 q-27 -53.5 -59.5 -101 q-32.5 -47.5 -67.5 -83.5 q-4 8 -11 21.5 q-7 13.5 -14.5 27.5 q-7.5 14 -13.5 21 q45 45 83.5 109 q38.5 64 60.5 133 ZM160 725 l277 0 l0 -69 l-291 0 l14 69 ZM192 -73 l-9 67 l27 29 l199 98 q2 -15 5.5 -33.5 q3.5 -18.5 7.5 -30.5 q-69 -37 -112 -60 q-43 -23 -66.5 -36 q-23.5 -13 -34 -20.5 q-10.5 -7.5 -17.5 -13.5 ZM112 547 l289 0 l0 -68 l-289 0 l0 68 ZM60 344 l358 0 l0 -69 l-358 0 l0 69 ZM192 -73 q-3 8 -10 18.5 q-7 10.5 -15 21 q-8 10.5 -14 16.5 q14 10 33.5 32 q19.5 22 19.5 58 l0 454 l72 0 l0 -510 q0 0 -9 -6.5 q-9 -6.5 -21.5 -16.5 q-12.5 -10 -25 -22.5 q-12.5 -12.5 -21.5 -24 q-9 -11.5 -9 -20.5 Z" /><glyph glyph-name="" unicode="&#x9650;" d="M92 799 l240 0 l0 -68 l-173 0 l0 -809 l-67 0 l0 877 ZM319 799 l13 0 l11 3 l49 -29 q-22 -61 -48 -130.5 q-26 -69.5 -51 -129.5 q54 -63 71.5 -117 q17.5 -54 17.5 -102 q0 -40 -9 -70.5 q-9 -30.5 -31 -46.5 q-10 -7 -23.5 -11.5 q-13.5 -4.5 -28.5 -6.5 q-15 -2 -32.5 -2 q-17.5 0 -34.5 0 q0 14 -5 33 q-5 19 -14 33 q17 -1 32 -1.5 q15 -0.5 27 0.5 q19 2 31 9 q12 9 16.5 28 q4.5 19 4.5 42 q0 41 -18 92.5 q-18 51.5 -72 111.5 q14 34 27.5 71 q13.5 37 25.5 74 q12 37 22.5 70 q10.5 33 18.5 58 l0 21 ZM481 796 l402 0 l0 -440 l-402 0 l0 66 l330 0 l0 308 l-330 0 l0 66 ZM486 609 l364 0 l0 -63 l-364 0 l0 63 ZM668 395 q22 -93 61.5 -173 q39.5 -80 98.5 -138.5 q59 -58.5 137 -91.5 q-8 -7 -18 -18.5 q-10 -11.5 -18.5 -23.5 q-8.5 -12 -14.5 -23 q-82 40 -142 106 q-60 66 -101 155 q-41 89 -65 195 l62 12 ZM894 324 l49 -53 q-29 -23 -63 -47.5 q-34 -24.5 -68.5 -46 q-34.5 -21.5 -64.5 -38.5 l-41 47 q29 18 63.5 41.5 q34.5 23.5 67.5 49 q33 25.5 57 47.5 ZM439 -80 l-6 66 l36 28 l224 54 q-1 -16 0 -35.5 q1 -19.5 3 -32.5 q-77 -21 -124.5 -34.5 q-47.5 -13.5 -74 -21.5 q-26.5 -8 -38.5 -13.5 q-12 -5.5 -20 -10.5 ZM439 -80 q-2 9 -8 20 q-6 11 -12.5 23 q-6.5 12 -12.5 19 q11 7 23.5 23 q12.5 16 12.5 48 l0 743 l74 0 l0 -802 q0 0 -7.5 -5.5 q-7.5 -5.5 -19 -13.5 q-11.5 -8 -23.5 -17.5 q-12 -9.5 -19.5 -19.5 q-7.5 -10 -7.5 -18 Z" /><glyph glyph-name="" unicode="&#x9662;" d="M465 537 l403 0 l0 -66 l-403 0 l0 66 ZM388 357 l567 0 l0 -68 l-567 0 l0 68 ZM384 716 l565 0 l0 -177 l-72 0 l0 111 l-422 0 l0 -111 l-71 0 l0 177 ZM531 326 l72 0 q-5 -76 -17.5 -139 q-12.5 -63 -40 -113.5 q-27.5 -50.5 -76 -88.5 q-48.5 -38 -124.5 -64 q-6 14 -19 31.5 q-13 17.5 -25 28.5 q70 21 113.5 53 q43.5 32 67 74.5 q23.5 42.5 34.5 96.5 q11 54 15 121 ZM706 327 l71 0 l0 -300 q0 -19 5 -24 q5 -5 21 -5 q5 0 19.5 0 q14.5 0 30 0 q15.5 0 21.5 0 q11 0 17 8.5 q6 8.5 8.5 35.5 q2.5 27 3.5 83 q8 -6 19 -11.5 q11 -5.5 23 -10 q12 -4.5 22 -7.5 q-2 -65 -10.5 -100.5 q-8.5 -35.5 -26 -49.5 q-17.5 -14 -48.5 -14 q-5 0 -17.5 0 q-12.5 0 -27.5 0 q-15 0 -27 0 q-12 0 -18 0 q-34 0 -53 8.5 q-19 8.5 -26 29 q-7 20.5 -7 56.5 l0 301 ZM586 826 l68 22 q19 -29 37.5 -64.5 q18.5 -35.5 27.5 -60.5 l-72 -27 q-8 27 -25 63.5 q-17 36.5 -36 66.5 ZM79 799 l233 0 l0 -68 l-165 0 l0 -809 l-68 0 l0 877 ZM294 799 l13 0 l11 3 l49 -29 q-22 -61 -48 -130.5 q-26 -69.5 -52 -129.5 q55 -63 72.5 -117 q17.5 -54 17.5 -102 q0 -40 -9.5 -70.5 q-9.5 -30.5 -30.5 -46.5 q-10 -7 -23.5 -11.5 q-13.5 -4.5 -28.5 -6.5 q-15 -2 -32.5 -2 q-17.5 0 -34.5 0 q-1 14 -5.5 33 q-4.5 19 -13.5 33 q17 -1 32 -1.5 q15 -0.5 26 0.5 q20 2 31 9 q12 9 17 28 q5 19 5 42 q0 41 -18.5 92.5 q-18.5 51.5 -72.5 111.5 q14 34 27.5 71 q13.5 37 26 74 q12.5 37 23 70 q10.5 33 18.5 58 l0 21 Z" /><glyph glyph-name="" unicode="&#x9876;" d="M435 796 l526 0 l0 -67 l-526 0 l0 67 ZM655 763 l83 -11 q-15 -43 -31.5 -87 q-16.5 -44 -30.5 -75 l-64 13 q12 34 24 79.5 q12 45.5 19 80.5 ZM662 496 l74 0 l0 -202 q0 -47 -11 -98 q-11 -51 -41 -100.5 q-30 -49.5 -88 -94.5 q-58 -45 -152 -81 q-5 8 -12.5 19 q-7.5 11 -16.5 22 q-9 11 -17 18 q93 30 146 68 q53 38 78.5 80.5 q25.5 42.5 32.5 85.5 q7 43 7 82 l0 201 ZM707 90 l48 49 q36 -23 75.5 -52.5 q39.5 -29.5 75 -59 q35.5 -29.5 57.5 -52.5 l-51 -57 q-21 25 -56 55 q-35 30 -74 61 q-39 31 -75 56 ZM476 628 l445 0 l0 -471 l-73 0 l0 400 l-301 0 l0 -402 l-71 0 l0 473 ZM45 769 l371 0 l0 -71 l-371 0 l0 71 ZM207 731 l75 0 l0 -680 q0 -34 -9.5 -52.5 q-9.5 -18.5 -32.5 -27.5 q-21 -10 -59.5 -13 q-38.5 -3 -98.5 -2 q-1 10 -6 23.5 q-5 13.5 -10.5 27.5 q-5.5 14 -11.5 24 q46 -1 82.5 -1.5 q36.5 -0.5 48.5 0.5 q13 1 17.5 5 q4.5 4 4.5 16 l0 680 Z" /><glyph glyph-name="" unicode="&#x2ee9;&#x9ec4;" d="M55 588 l893 0 l0 -69 l-893 0 l0 69 ZM127 752 l755 0 l0 -68 l-755 0 l0 68 ZM304 840 l75 0 l0 -285 l-75 0 l0 285 ZM624 840 l76 0 l0 -285 l-76 0 l0 285 ZM461 551 l77 0 l0 -419 l-77 0 l0 419 ZM236 249 l0 -89 l533 0 l0 89 l-533 0 ZM236 391 l0 -88 l533 0 l0 88 l-533 0 ZM163 446 l681 0 l0 -342 l-681 0 l0 342 ZM592 40 l44 47 q56 -18 112.5 -39 q56.5 -21 106.5 -40.5 q50 -19.5 87 -37.5 l-55 -50 q-35 17 -82 37 q-47 20 -102 41.5 q-55 21.5 -111 41.5 ZM352 87 l68 -44 q-40 -25 -93 -48.5 q-53 -23.5 -109.5 -43.5 q-56.5 -20 -107.5 -34 q-9 12 -24 28 q-15 16 -27 26 q51 14 106.5 33 q55.5 19 105.5 41 q50 22 81 42 Z" /><glyph glyph-name="" unicode="&#xff08;" d="M695 380 q0 98 24.5 183 q24.5 85 69.5 158.5 q45 73.5 105 134.5 l60 -31 q-57 -59 -99 -128.5 q-42 -69.5 -64.5 -148 q-22.5 -78.5 -22.5 -168.5 q0 -89 22.5 -168 q22.5 -79 64.5 -148 q42 -69 99 -129 l-60 -31 q-60 62 -105 135 q-45 73 -69.5 158.5 q-24.5 85.5 -24.5 182.5 Z" /><glyph glyph-name="" unicode="&#xff09;" d="M305 380 q0 -97 -24.5 -182.5 q-24.5 -85.5 -69.5 -158.5 q-45 -73 -105 -135 l-60 31 q57 60 99 129 q42 69 64.5 148 q22.5 79 22.5 168 q0 90 -22.5 168.5 q-22.5 78.5 -64.5 148 q-42 69.5 -99 128.5 l60 31 q60 -61 105 -134.5 q45 -73.5 69.5 -158.5 q24.5 -85 24.5 -183 Z" /><glyph glyph-name="" unicode="&#xff1a;" d="M250 486 q-30 0 -53 20 q-23 20 -23 54 q0 35 23 55.5 q23 20.5 53 20.5 q30 0 53 -20.5 q23 -20.5 23 -55.5 q0 -34 -23 -54 q-23 -20 -53 -20 ZM250 -4 q-30 0 -53 20.5 q-23 20.5 -23 54.5 q0 34 23 54.5 q23 20.5 53 20.5 q30 0 53 -20.5 q23 -20.5 23 -54.5 q0 -34 -23 -54.5 q-23 -20.5 -53 -20.5 Z" /></font>
</defs>
</svg>
